<?xml version="1.0" standalone="no"?>
<!DOCTYPE svg PUBLIC "-//W3C//DTD SVG 1.1//EN" "http://www.w3.org/Graphics/SVG/1.1/DTD/svg11.dtd">
<svg xmlns="http://www.w3.org/2000/svg">
<metadata>Copyright (C) 2015 by original authors @ fontello.com</metadata>
<defs>
<font id="thin" horiz-adv-x="1000" >
<font-face font-family="thin" font-weight="400" font-stretch="normal" units-per-em="1000" ascent="850" descent="-150" />
<missing-glyph horiz-adv-x="1000" />
<glyph glyph-name="thin-volume-on" unicode="&#xe800;" d="m623 673c-9 5-21 4-32-4l-231-158c-6-4-11-9-15-14 0 0-1 0-1 0l-162 0c-40 0-73-33-73-73l0-147c0-41 33-74 73-74l162 0c1 0 1 0 2 0 4-5 9-10 14-14l231-158c7-5 14-7 20-7 4 0 9 1 12 3 10 5 15 16 15 29l0 588c0 14-5 24-15 29z m-14-617c0-1 0-1 0-2-1 1-1 1-1 1l-231 158c-10 7-18 23-18 34l0 103c0 8-7 15-15 15-8 0-15-7-15-15l0-103c0-5 1-10 2-15l-149 0c-24 0-44 20-44 45l0 147c0 24 20 44 44 44l148 0c0-3-1-5-1-8l0-22c0-8 7-14 15-14 8 0 15 6 15 14l0 22c0 6 7 20 18 27l231 158c0 0 0 0 1 1 0-1 0-1 0-2l0-588z m120 397c-8 4-16 1-20-6-4-7-1-16 6-20 2-1 38-20 38-78 0-58-36-78-37-78-8-4-11-13-7-20 3-5 8-8 13-8 2 0 5 0 7 1 2 2 53 28 53 105 0 77-51 103-53 104z m67 86c-7 4-16 2-20-4-5-7-3-16 4-21 3-2 82-57 82-165 0-109-79-163-82-165-7-5-9-14-4-21 2-4 7-6 12-6 3 0 6 0 8 2 4 3 95 65 95 190 0 125-91 187-95 190z" horiz-adv-x="1000" />
<glyph glyph-name="thin-gift" unicode="&#xe801;" d="m838 528h-283c45 15 109 40 147 78 23 23 29 57 16 89-12 31-41 50-72 50-20 0-51-7-84-45-30-36-49-76-60-108-10 23-24 49-45 74-26 31-51 37-68 37-26 0-49-17-60-42-11-26-5-54 14-73 28-28 73-48 108-60h-289c-25 0-44-20-44-44v-118c0-8 6-14 14-14h30v-353c0-25 20-44 44-44h603c24 0 44 19 44 44v353h15c8 0 14 6 14 14v118c0 24-19 44-44 44z m-474 80c-11 11-14 27-8 42 6 14 19 24 33 24 15 0 31-10 46-27 29-34 43-74 50-98-32 9-91 29-121 59z m121-624h-279c-8 0-15 6-15 15v353h294v-368z m0 397h-338v103c0 8 7 15 15 15h323v-118z m100 299c20 24 41 36 61 36 19 0 37-13 45-33 9-20 5-41-10-56-41-41-122-68-162-79 8 30 26 86 66 132z m239-681c0-9-7-15-15-15h-294v368h309v-353z m29 382h-338v118h323c8 0 15-7 15-15v-103z" horiz-adv-x="1000" />
<glyph glyph-name="thin-cup" unicode="&#xe802;" d="m708-18l-574 0c-8 0-15-6-15-14 0-9 7-15 15-15l574 0c8 0 14 6 14 15 0 8-6 14-14 14z m166 434c-40 47-122 39-137 37l0 59c0 8-6 15-15 15l-603 0c-8 0-14-7-14-15l0-103c0-171 0-256 33-290 28-28 26-76 26-77-1-4 1-8 3-11 3-3 7-5 11-5l486 0c4 0 8 2 10 5 3 3 5 7 4 11 0 1-2 49 25 77 7 6 12 15 16 25 5-2 15-5 29-5 10 0 21 2 34 7 42 18 76 65 101 141 19 56 16 99-9 129z m-166-7c0-152 0-244-25-269-26-26-33-63-34-84l-456 0c-2 21-8 58-34 84-25 25-25 117-25 269l0 88 574 0 0-88z m148-113c-28-83-61-112-84-122-24-11-42-2-43-2-1 0-1 0-2 0 10 48 10 124 10 237l0 15c1 0 2 0 2 0 22 3 85 5 113-27 17-22 19-55 4-101z m-575-152l338 0c9 0 15 7 15 15 0 8-6 15-15 15l-338 0c-8 0-15-7-15-15 0-8 7-15 15-15z m78 416c3-3 7-4 10-4 4 0 8 1 11 4 6 6 6 15 0 21 0 0-9 9-13 22-6 16-1 31 13 46 17 17 25 35 23 54-2 25-23 40-25 42-7 4-16 2-21-4-4-7-3-16 4-21 0 0 12-8 13-20 1-10-4-20-15-31-43-43-19-90 0-109z m97 25c4-14 14-24 15-25 2-3 6-4 10-4 4 0 7 1 10 4 6 6 6 15 0 21-4 5-18 22 0 40 13 13 19 27 18 41-2 20-18 31-20 32-7 5-16 3-20-4-5-7-3-16 4-20 0 0 6-5 7-11 0-6-5-13-9-17-17-17-22-37-15-57z" horiz-adv-x="1000" />
<glyph glyph-name="thin-folder" unicode="&#xe803;" d="m824 607l-346 0c-13 0-35 19-45 43-15 34-47 60-73 60l-184 0c-40 0-73-33-73-73l0-574c0-40 33-73 73-73l648 0c40 0 73 33 73 73l0 471c0 40-33 73-73 73z m44-544c0-24-20-44-44-44l-648 0c-24 0-44 20-44 44l0 412 736 0 0-412z m0 441l-736 0 0 133c0 24 20 44 44 44l184 0c13 0 35-18 46-43 14-33 46-60 72-60l346 0c24 0 44-20 44-44l0-30z m-486-176l250 0c9 0 15 7 15 15 0 8-6 14-15 14l-250 0c-8 0-14-6-14-14 0-8 6-15 14-15z" horiz-adv-x="1000" />
<glyph glyph-name="thin-dublicate" unicode="&#xe804;" d="m647 571l-471 0c-40 0-73-33-73-74l0-471c0-40 33-73 73-73l471 0c41 0 74 33 74 73l0 471c0 41-33 74-74 74z m44-545c0-24-20-44-44-44l-471 0c-24 0-44 20-44 44l0 471c0 24 20 44 44 44l471 0c24 0 44-20 44-44l0-471z m-397 574c8 0 15 7 15 15l0 44c0 8-7 15-15 15-8 0-15-7-15-15l0-44c0-8 7-15 15-15z m19 102c4 0 7 1 10 4 8 8 19 12 30 12 8 0 15 6 15 14 0 9-7 15-15 15-19 0-36-7-50-19-6-6-6-15-1-21 3-3 7-5 11-5z m484 30c0 9-6 15-14 15l-44 0c-9 0-15-6-15-15 0-8 6-14 15-14l44 0c8 0 14 6 14 14z m-381-14l45 0c8 0 14 6 14 14 0 9-6 15-14 15l-45 0c-8 0-14-6-14-15 0-8 6-14 14-14z m108 0l44 0c8 0 15 6 15 14 0 9-7 15-15 15l-44 0c-8 0-15-6-15-15 0-8 7-14 15-14z m107 0l44 0c8 0 15 6 15 14 0 9-7 15-15 15l-44 0c-8 0-14-6-14-15 0-8 6-14 14-14z m251-174c-8 0-14-7-14-15l0-44c0-8 6-15 14-15 9 0 15 7 15 15l0 44c0 8-6 15-15 15z m0 107c-8 0-14-7-14-15l0-44c0-8 6-15 14-15 9 0 15 7 15 15l0 44c0 8-6 15-15 15z m0-215c-8 0-14-6-14-14l0-45c0-8 6-14 14-14 9 0 15 6 15 14l0 45c0 8-6 14-15 14z m0-214c-8 0-14-7-14-15l0-4c0-10-4-20-10-28-5-6-4-15 2-21 3-2 6-3 9-3 4 0 9 2 12 5 10 14 16 30 16 47l0 4c0 8-6 15-15 15z m-5 462c2 0 4 0 6 1 7 4 11 13 7 20-8 17-22 30-39 37-8 3-16-1-19-8-3-8 0-16 8-19 10-5 19-12 24-23 2-5 7-8 13-8z m5-355c-8 0-14-7-14-15l0-44c0-8 6-15 14-15 9 0 15 7 15 15l0 44c0 8-6 15-15 15z m-69-170l-45 0c-8 0-14-7-14-15 0-8 6-15 14-15l45 0c8 0 14 7 14 15 0 8-6 15-14 15z" horiz-adv-x="1000" />
<glyph glyph-name="thin-tag" unicode="&#xe805;" d="m868 712c-20 23-50 34-84 31l-218-22c-27-2-60-17-76-33l-360-360c-28-28-31-72-6-97l258-258c11-11 26-16 42-16 19 0 38 8 52 22l360 360c17 17 32 48 34 70l23 225c2 30-6 58-25 78z m-413-712c-8-9-20-14-31-14-6 0-15 1-21 8l-258 258c-13 13-11 39 6 55l59 59 306-306-61-60z m408 637l-22-225c-2-16-13-40-25-52l-280-279-305 306 280 280c11 12 38 23 57 25l219 22c3 0 6 0 8 0 21 0 39-8 52-21 12-14 18-34 16-56z m-137 13c-40 0-73-33-73-73 0-41 33-74 73-74 41 0 74 33 74 74 0 40-33 73-74 73z m0-118c-24 0-44 20-44 45 0 24 20 44 44 44 24 0 44-20 44-44 0-25-20-45-44-45z" horiz-adv-x="1000" />
<glyph glyph-name="thin-chat" unicode="&#xe806;" d="m500 735c-218 0-397-149-398-332-1-114 42-195 141-264 1-2 3-3 4-4 3-42-23-89-77-141l-4-4c-4-4-5-11-3-16 3-5 8-9 13-9 1 0 1 0 2 0 113 9 228 92 249 108l9 1c13-2 50-6 64-6 0 0 0 0 0 0 220 0 399 150 399 334 0 183-179 333-399 333z m-1-635c-13 0-53 3-61 4-1 0-3 0-5 0l-14-2c-3-1-5-2-7-3-1-1-95-73-194-97 43 49 63 96 58 139 0 2-1 3-1 4-1 2-3 6-13 16 0 0-1 1-1 1-92 64-131 136-130 241 2 167 167 303 369 303 204 0 369-136 369-303 0-167-165-303-370-303z m-168 351c-33 0-59-27-59-59 0-33 26-59 59-59 32 0 59 26 59 59 0 32-27 59-59 59z m0-89c-16 0-29 14-29 30 0 16 13 29 29 29 16 0 29-13 29-29 0-16-13-30-29-30z m162 89c-33 0-59-27-59-59 0-33 26-59 59-59 32 0 59 26 59 59 0 32-27 59-59 59z m0-89c-17 0-30 14-30 30 0 16 13 29 30 29 16 0 29-13 29-29 0-16-13-30-29-30z m162 89c-33 0-59-27-59-59 0-33 26-59 59-59 32 0 58 26 58 59 0 32-26 59-58 59z m0-89c-17 0-30 14-30 30 0 16 13 29 30 29 16 0 29-13 29-29 0-16-13-30-29-30z" horiz-adv-x="1000" />
<glyph glyph-name="thin-clock" unicode="&#xe807;" d="m515 383l0 178c0 9-6 15-14 15-9 0-15-6-15-15l0-178c-34-6-59-36-59-72 0-15 5-28 12-40l-96-96c-6-6-6-15 0-21 3-3 7-4 11-4 3 0 7 1 10 4l96 96c12-8 26-12 41-12 40 0 73 33 73 73 0 36-25 66-59 72z m-14-116c-25 0-45 20-45 44 0 25 20 45 45 45 24 0 44-20 44-45 0-24-20-44-44-44z m0 383c-187 0-339-152-339-339 0-92 37-175 97-236-2-1-4-2-5-4l-74-89c-5-6-4-15 2-20 3-3 6-4 10-4 4 0 8 2 11 6l74 88c1 1 1 3 2 4 59-51 137-83 222-83 80 0 154 28 212 75l70-84c3-4 8-6 12-6 3 0 6 1 9 4 6 5 7 14 2 20l-71 86c64 61 104 148 104 243 0 187-152 339-338 339z m0-647c-171 0-309 138-309 308 0 171 138 309 309 309 170 0 308-138 308-309 0-170-138-308-308-308z m308 703c-28 23-60 34-94 34-43 0-74-18-75-19-4-2-7-7-7-11 0-5 2-10 5-13l191-161c3-3 6-4 10-4 1 0 2 0 3 0 4 1 8 4 10 8 1 1 45 96-43 166z m23-134l-157 132c11 4 25 7 40 7 28 0 53-9 76-28 48-38 47-85 41-111z m-661-37l206 162c4 3 6 8 6 13 0 4-3 9-7 11-2 1-35 21-82 21-37 0-71-12-102-35-72-55-59-133-43-167 2-4 6-7 10-8 1 0 2 0 3 0 4 0 7 1 9 3z m39 148c25 19 54 29 84 29 18 0 34-3 46-7l-171-134c-6 26-10 74 41 112z" horiz-adv-x="1000" />
<glyph glyph-name="thin-microphone" unicode="&#xe808;" d="m500 174c97 0 177 85 177 191l0 191c0 105-80 191-177 191-97 0-176-86-176-191l0-191c0-106 79-191 176-191z m-147 382c0 89 66 162 147 162 81 0 147-73 147-162l0-191c0-89-66-162-147-162-81 0-147 73-147 162l0 191z m427-103l-59 0c-8 0-15-7-15-15 0-8 7-14 15-14l14 0 0-55c0-138-107-254-235-254-128 0-235 116-235 254l0 55 14 0c9 0 15 6 15 14 0 8-6 15-15 15l-58 0c-9 0-15-7-15-15 0-8 6-14 15-14l14 0 0-55c0-151 111-275 250-283l0-104-132 0c-8 0-15-6-15-14 0-9 7-15 15-15l294 0c8 0 15 6 15 15 0 8-7 14-15 14l-132 0 0 104c139 8 250 132 250 283l0 55 15 0c8 0 14 6 14 14 0 8-6 15-14 15z m-177-29c8 0 15 6 15 14 0 8-7 15-15 15l-206 0c-8 0-15-7-15-15 0-8 7-14 15-14l206 0z" horiz-adv-x="1000" />
<glyph glyph-name="thin-map-marker" unicode="&#xe809;" d="m489 134c3-3 7-5 11-5 4 0 8 2 11 5 5 6 125 143 191 294 14 31 22 63 22 96 0 123-101 223-225 223-123 0-224-100-224-223 0-33 7-66 21-95 66-152 188-289 193-295z m10 584c108 0 195-87 195-194 0-29-6-56-19-83-53-122-144-236-175-274-32 38-124 152-177 274-12 26-19 54-19 83 0 107 88 194 195 194z m0-298c59 0 107 48 107 107 0 58-48 106-107 106-58 0-106-48-106-106 0-59 48-107 106-107z m0 184c43 0 77-35 77-77 0-43-34-77-77-77-42 0-77 34-77 77 0 42 35 77 77 77z m383-633l-88 339c-1 4-5 8-9 10l-74 29-10-27 66-27 78-300-147 74c-4 2-9 2-13 0l-185-85-185 85c-4 2-9 2-13 0l-147-74 78 300 67 27-11 27-74-29c-4-2-7-6-9-10l-88-339c-1-5 1-11 5-15 5-4 11-4 16-2l170 86 185-86c4-2 8-2 12 0l185 86 170-86c2-1 5-1 7-1 3 0 6 1 9 3 5 4 6 10 5 15z" horiz-adv-x="1000" />
<glyph glyph-name="thin-mobile" unicode="&#xe80a;" d="m691 747l-382 0c-41 0-74-33-74-73l0-648c0-40 33-73 74-73l382 0c41 0 74 33 74 73l0 648c0 40-33 73-74 73z m44-721c0-24-19-44-44-44l-382 0c-24 0-44 20-44 44l0 103 470 0 0-103z m0 133l-470 0 0 456 470 0 0-456z m0 485l-470 0 0 30c0 24 20 44 44 44l382 0c25 0 44-20 44-44l0-30z m-264-603l58 0c9 0 15 7 15 15 0 8-6 15-15 15l-58 0c-8 0-15-7-15-15 0-8 7-15 15-15z" horiz-adv-x="1000" />
<glyph glyph-name="thin-cloud-charge" unicode="&#xe80b;" d="m754 553c-8 97-90 174-189 174-79 0-149-49-177-122-12 4-25 5-37 5-69 0-126-54-131-122-69-18-117-80-117-152 0-87 70-157 157-157l79 0c8 0 14 6 14 15 0 8-6 14-14 14l-79 0c-71 0-128 58-128 128 0 62 44 115 105 126 7 1 12 8 12 15 0 0 0 2 0 2 0 56 46 102 102 102 10 0 19-1 28-4-1-7-2-14-3-21-1-8 5-15 13-16 1 0 1 0 2 0 7 0 14 6 14 14 1 7 2 14 4 21 0 1 0 2 0 3 1 1 2 3 2 4 20 68 83 116 154 116 81 0 149-62 159-140-8 0-16 0-23-1-9-1-14-9-13-17 1-8 8-13 16-12 11 1 21 1 32-1 0 0 1-1 1-1 76-14 131-80 131-157 0-82-61-151-141-160l-29-1-51 0c-8 0-14-6-14-14 0-9 6-15 14-15l51 0 31 1c96 11 169 92 169 189 0 87-60 163-144 184z m-151-154l-117 0c-7 0-12-3-14-9l-74-206c-1-5-1-10 2-14 3-4 7-6 12-6l55 0-40-173c-1-7 2-14 9-17 2-1 4-1 6-1 4 0 9 2 12 7l147 235c3 5 3 10 0 15-2 5-7 8-12 8l-49 0 76 140c3 4 3 10 0 14-3 5-7 7-13 7z m-101-169c-2-5-2-10 0-15 3-4 8-7 13-7l47 0-86-138 24 105c1 5 0 9-3 13-3 3-7 6-11 6l-53 0 63 176 83 0-77-140z" horiz-adv-x="1000" />
<glyph glyph-name="thin-resize" unicode="&#xe80c;" d="m118 453c8 0 14 7 14 15l0 44c0 8-6 15-14 15-9 0-15-7-15-15l0-44c0-8 6-15 15-15z m0 206c8 0 14 7 14 15 0 11 5 21 12 30 6 6 5 15 0 20-6 6-16 6-21 0-13-14-20-32-20-50 0-8 6-15 15-15z m0-103c8 0 14 7 14 15l0 44c0 8-6 15-14 15-9 0-15-7-15-15l0-44c0-8 6-15 15-15z m437 176c0 9-7 15-15 15l-44 0c-8 0-15-6-15-15 0-8 7-14 15-14l44 0c8 0 15 6 15 14z m-13-750l-27 0c-8 0-15-6-15-14 0-9 7-15 15-15l27 0c8 0 15 6 15 15 0 8-7 14-15 14z m-424 368c8 0 14 7 14 15l0 44c0 8-6 15-14 15-9 0-15-7-15-15l0-44c0-8 6-15 15-15z m481 368l44 0c8 0 15 6 15 14 0 9-7 15-15 15l-44 0c-8 0-15-6-15-15 0-8 7-14 15-14z m103 0l44 0c8 0 15 6 15 14 0 9-7 15-15 15l-44 0c-8 0-15-6-15-15 0-8 7-14 15-14z m-309 0l44 0c8 0 15 6 15 14 0 9-7 15-15 15l-44 0c-8 0-15-6-15-15 0-8 7-14 15-14z m-206 0l44 0c8 0 15 6 15 14 0 9-7 15-15 15l-44 0c-8 0-15-6-15-15 0-8 7-14 15-14z m103 0l44 0c8 0 15 6 15 14 0 9-7 15-15 15l-44 0c-8 0-15-6-15-15 0-8 7-14 15-14z m606-34c-1 8-8 14-16 12-8-1-14-8-13-16 1-2 1-4 1-6l0-36c0-8 6-15 14-15 9 0 15 7 15 15l0 36c0 3 0 7-1 10z m-14-399c-8 0-14-7-14-15l0-44c0-8 6-15 14-15 9 0 15 7 15 15l0 44c0 8-6 15-15 15z m0-103c-8 0-14-7-14-15l0-44c0-8 6-15 14-15 9 0 15 7 15 15l0 44c0 8-6 15-15 15z m0 206c-8 0-14-7-14-15l0-44c0-8 6-15 14-15 9 0 15 7 15 15l0 44c0 8-6 15-15 15z m0-309c-8 0-14-7-14-15l0-38c0-1 0-3 0-4-1-8 4-16 13-17 0 0 1 0 1 0 8 0 14 6 15 13 0 3 0 6 0 8l0 38c0 8-6 15-15 15z m0 412c-8 0-14-7-14-15l0-44c0-8 6-15 14-15 9 0 15 7 15 15l0 44c0 8-6 15-15 15z m-77 227l19 0c6 0 12-2 18-4 2-1 4-2 6-2 6 0 11 4 14 9 3 7 0 16-8 19-9 5-20 7-30 7l-19 0c-8 0-15-6-15-15 0-8 7-14 15-14z m-160-736l-44 0c-8 0-15-6-15-14 0-9 7-15 15-15l44 0c8 0 15 6 15 15 0 8-7 14-15 14z m198 5c-6-3-12-5-19-5l-17 0c-8 0-15-6-15-14 0-9 7-15 15-15l17 0c11 0 22 2 32 8 8 3 11 12 7 19-4 8-12 10-20 7z m-95-5l-44 0c-8 0-15-6-15-14 0-9 7-15 15-15l44 0c8 0 15 6 15 15 0 8-7 14-15 14z m134 612c-8 0-14-7-14-15l0-44c0-8 6-15 14-15 9 0 15 7 15 15l0 44c0 8-6 15-15 15z m-485-273l-221 0c-40 0-73-33-73-74l0-221c0-40 33-73 73-73l221 0c41 0 74 33 74 73l0 221c0 41-33 74-74 74z m44-295c0-24-20-44-44-44l-221 0c-24 0-44 20-44 44l0 221c0 24 20 44 44 44l221 0c24 0 44-20 44-44l0-221z m324 604l-162 0c-8 0-15-7-15-15 0-8 7-15 15-15l126 0-217-217c-6-6-6-16 0-21 3-3 6-5 10-5 4 0 8 2 11 5l217 217 0-126c0-8 7-15 15-15 8 0 15 7 15 15l0 162c0 8-7 15-15 15z" horiz-adv-x="1000" />
<glyph glyph-name="thin-cake" unicode="&#xe80d;" d="m501 524c1 0 2 0 2 0 46 7 63 32 69 51 18 55-31 134-61 164-4 5-11 6-17 2-6-3-9-9-7-16 4-19-10-38-25-59-16-22-32-44-32-72 0-56 46-70 71-70z m-15 125c9 13 20 28 26 43 21-32 42-78 32-108-5-17-20-27-44-31-9 0-41 3-41 41 0 18 13 36 27 55z m396-663l-44 0 0 309c0 41-33 74-73 74l-221 0 0 88c0 24-20 44-44 44-24 0-44-20-44-44l0-88-221 0c-40 0-73-33-73-74l0-309-44 0c-9 0-15-6-15-15 0-8 6-14 15-14l764 0c9 0 15 6 15 14 0 9-6 15-15 15z m-397 471c0 8 7 15 15 15 8 0 15-7 15-15l0-88-30 0 0 88z m324-471l-618 0 0 178c4-1 7-1 11-1 32 0 48 19 61 34 13 16 21 25 38 25 18 0 26-9 39-25 13-15 29-34 61-34 31 0 48 19 61 34 13 16 21 25 38 25 17 0 25-9 38-25 13-15 30-34 61-34 32 0 48 19 61 34 13 16 21 25 38 25 18 0 26-9 39-25 13-15 29-34 61-34 4 0 7 0 11 1l0-178z m0 208c-3-1-7-2-11-2-17 0-26 9-39 24-13 16-29 35-61 35-31 0-47-19-60-35-14-15-22-24-39-24-17 0-25 9-38 24-13 16-29 35-61 35-32 0-48-19-61-35-13-15-21-24-38-24-18 0-26 9-39 24-13 16-29 35-61 35-31 0-47-19-60-35-14-15-22-24-39-24-4 0-7 1-11 2l0 101c0 24 20 44 44 44l530 0c24 0 44-20 44-44l0-101z" horiz-adv-x="1000" />
<glyph glyph-name="thin-case" unicode="&#xe80e;" d="m780 747l-559 0c-41 0-74-33-74-73l0-603 0-30 0-44c0-24 20-44 44-44l59 0c24 0 44 20 44 43 0 0 5 16 59 16l294 0c54 0 59-16 59-15 0-24 20-44 44-44l59 0c24 0 44 20 44 44l0 44 0 30 0 603c0 40-33 73-73 73z m44-676l0-30 0-44c0-8-7-15-15-15l-59 0c-8 0-15 7-15 15 0 5-2 44-88 44l-294 0c-86 0-88-39-88-44 0-8-7-15-15-15l-59 0c-8 0-15 7-15 15l0 44 0 30 0 29 648 0 0-29z m0 58l-648 0 0 280 648 0 0-280z m0 309l-648 0 0 236c0 24 20 44 45 44l559 0c24 0 44-20 44-44l0-236z m-221 177c-8 0-15-7-15-15l0-22c0-2-5-7-14-7l-147 0c-9 0-15 5-15 7l0 22c0 8-7 15-15 15-8 0-15-7-15-15l0-22c0-20 20-37 45-37l147 0c24 0 44 17 44 37l0 22c0 8-7 15-15 15z m-176-383l147 0c24 0 44 17 44 37l0 22c0 8-7 15-15 15-8 0-15-7-15-15l0-22c0-2-5-7-14-7l-147 0c-9 0-15 5-15 7l0 22c0 8-7 15-15 15-8 0-15-7-15-15l0-22c0-20 20-37 45-37z" horiz-adv-x="1000" />
<glyph glyph-name="thin-address" unicode="&#xe80f;" d="m897 585c0 25-20 45-44 45l-29 0 0 44c0 40-33 73-74 73l-529 0c-41 0-74-33-74-73l0-74 29 0 0 74c0 24 20 44 45 44l529 0c24 0 44-20 44-44l0-648c0-24-20-44-44-44l-529 0c-25 0-45 20-45 44l0 89 30 0c8 0 15 6 15 14 0 9-7 15-15 15l-88 0c-9 0-15-6-15-15 0-8 6-14 15-14l29 0 0-89c0-40 33-73 74-73l529 0c41 0 74 33 74 73l0 45 29 0c24 0 44 19 44 44l0 117c0 12-4 22-11 30 7 8 11 18 11 29l0 118c0 11-4 21-11 29 7 8 11 18 11 30l0 117z m-29-470c0-8-7-15-15-15l-29 0 0 147 29 0c8 0 15-7 15-15l0-117z m0 176c0-8-7-14-15-14l-29 0 0 147 29 0c8 0 15-7 15-15l0-118z m0 177c0-8-7-15-15-15l-29 0 0 147 29 0c8 0 15-6 15-15l0-117z m-750 73l29 0 0-367 29 0 0 367 30 0c8 0 15 7 15 15 0 8-7 15-15 15l-88 0c-9 0-15-7-15-15 0-8 6-15 15-15z m408-89c-26 8-82 8-111-40-16-27-20-55-12-78 6-19 19-33 37-40 14-6 29-5 43 3 13 7 24 19 33 34 2-4 5-8 8-12 13-17 38-25 61-20 16 4 45 18 57 70 10 42 0 82-27 112-35 38-93 56-152 48-48-7-87-30-112-68-28-41-36-94-23-148 14-54 58-95 117-110 14-3 28-5 43-5 48 0 93 19 125 55 5 6 5 15-1 21-6 5-16 5-21-2-34-37-87-53-139-40-49 12-84 45-95 89-12 45-5 90 18 124 21 30 52 49 91 55 51 7 99-8 127-39 21-23 28-52 20-85-6-27-19-44-35-48-13-3-26 3-32 10-20 24-14 78-10 97l-10 17z m-23-72c-1-2-3-4-3-7-4-21-16-42-31-50-6-4-12-4-18-2-10 4-17 12-20 22-5 15-2 34 9 54 15 24 39 30 57 30 3 0 5-1 8-1-2-11-3-28-2-46z" horiz-adv-x="1000" />
<glyph glyph-name="thin-phone-support" unicode="&#xe810;" d="m724 98l-140 96c-20 13-48 9-62-10l-36-52c-3-3-4-6-5-10-5-3-14-7-26-7-20 0-55 11-104 60-82 82-83 118-72 146 3 1 5 2 7 4l51 38c19 15 22 43 8 63l-100 136c-21 28-45 31-71 9-16-13-41-46-52-65-6-11-9-22-8-33-47-184 93-337 137-380 121-116 233-140 305-140 0 0 0 0 0 0 42 0 72 7 85 13 10-1 21 2 31 8 19 11 50 38 63 54 10 13 15 26 13 38-2 12-10 23-24 32z m-12-51c-11-14-40-38-55-48-6-4-12-5-17-4-3 0-6-1-9-2-6-3-33-12-75-12l0 0c-67 0-171 23-285 133-41 40-172 184-127 355 0 1 0 3 0 5-1 6 0 12 4 18 9 16 32 46 45 57 6 4 11 7 14 7 5 0 10-6 14-11l100-137c5-7 4-17-2-21l-51-39c0 0-2-1-3-1-5-1-8-4-10-8-22-47-16-94 75-185 45-45 87-68 125-68 25 0 41 10 48 16 3 3 5 6 5 9 0 2 1 3 2 4l36 52c4 6 15 7 22 3l139-96c7-5 11-9 12-13 0-3-2-8-7-14z m-234 361c-25-16-53-34-53-68l0-19c0-9 6-15 14-15l103 0c8 0 15 6 15 15 0 8-7 14-15 14l-88 0 0 5c0 17 15 27 40 43 28 17 63 39 63 85 0 17-6 32-18 42-13 13-34 19-57 16-36-3-55-35-56-36-3-8-1-16 6-20 7-4 16-2 20 5 0 0 12 20 33 22 15 1 27-2 34-8 6-5 9-12 9-21 0-27-19-41-50-60z m202 103c-6 2-12 0-16-4l-89-103c-2-3-3-6-3-10l0-15c0-8 6-14 14-14l74 0 0-44c0-9 7-15 15-15 8 0 14 6 14 15l0 44 15 0c8 0 15 6 15 14 0 9-7 15-15 15l-15 0 0 103c0 6-3 12-9 14z m-20-117l-54 0 54 63 0-63z m216-251l-49-16c44 65 68 143 68 223 0 219-178 397-397 397-102 0-199-39-274-109-5-6-6-15 0-21 5-6 15-6 21-1 68 66 158 102 253 102 203 0 368-165 368-368 0-75-23-148-66-209l-8 50c-1 8-9 13-17 12-8-2-13-9-12-17l15-88c1-5 3-8 7-11 2-1 5-2 7-2 2 0 4 1 5 1l88 29c8 3 12 11 10 19-3 8-11 12-19 9z" horiz-adv-x="1000" />
<glyph glyph-name="thin-fullscreen" unicode="&#xe811;" d="m118 136c8 0 14 7 14 15l0 44c0 8-6 15-14 15-9 0-15-7-15-15l0-44c0-8 6-15 15-15z m0 106c8 0 14 7 14 15l0 44c0 8-6 15-14 15-9 0-15-7-15-15l0-44c0-8 6-15 15-15z m0 106c8 0 14 7 14 15l0 44c0 8-6 15-14 15-9 0-15-7-15-15l0-44c0-8 6-15 15-15z m14-303l0 44c0 8-6 15-14 15-9 0-15-7-15-15l0-44c0-8 6-15 15-15 8 0 14 7 14 15z m41-63c-12 1-22 7-29 15-6 6-15 7-21 1-6-5-7-15-1-21 12-14 29-22 48-24 0 0 1 0 1 0 8 0 14 6 15 13 1 9-5 16-13 16z m104 0l-44 0c-8 0-15-6-15-14 0-9 7-15 15-15l44 0c8 0 15 6 15 15 0 8-7 14-15 14z m-28 750c0 9-7 15-15 15l-44 0c-8 0-15-6-15-15 0-8 7-14 15-14l44 0c8 0 15 6 15 14z m47-14l44 0c8 0 15 6 15 14 0 9-7 15-15 15l-44 0c-8 0-15-6-15-15 0-8 7-14 15-14z m-178-264c8 0 14 7 14 15l0 44c0 8-6 15-14 15-9 0-15-7-15-15l0-44c0-8 6-15 15-15z m496 264l44 0c8 0 14 6 14 14 0 9-6 15-14 15l-44 0c-9 0-15-6-15-15 0-8 6-14 15-14z m105 0l45 0c8 0 14 6 14 14 0 9-6 15-14 15l-45 0c-8 0-14-6-14-15 0-8 6-14 14-14z m-317 0l44 0c8 0 15 6 15 14 0 9-7 15-15 15l-44 0c-8 0-15-6-15-15 0-8 7-14 15-14z m-19-736l-44 0c-8 0-15-6-15-14 0-9 7-15 15-15l44 0c8 0 15 6 15 15 0 8-7 14-15 14z m-265 578c8 0 14 7 14 15l0 44c0 8-6 15-14 15-9 0-15-7-15-15l0-44c0-8 6-15 15-15z m0 99c8 0 14 7 14 15 0 11 5 21 12 30 6 6 5 15 0 20-6 6-16 6-21 0-13-14-20-32-20-50 0-8 6-15 15-15z m764-198c-8 0-14-6-14-14l0-45c0-8 6-14 14-14 9 0 15 6 15 14l0 45c0 8-6 14-15 14z m0-317c-8 0-14-7-14-15l0-44c0-8 6-15 14-15 9 0 15 7 15 15l0 44c0 8-6 15-15 15z m1-106c-8 0-15-6-15-14-1-11-6-22-14-30-6-5-6-14 0-20 2-3 6-5 10-5 4 0 8 1 10 4 14 13 22 31 23 49 1 8-6 15-14 16z m-1 211c-8 0-14-6-14-14l0-44c0-8 6-15 14-15 9 0 15 7 15 15l0 44c0 8-6 14-15 14z m0 318c-8 0-14-6-14-14l0-45c0-8 6-14 14-14 9 0 15 6 15 14l0 45c0 8-6 14-15 14z m0 106c-8 0-14-6-14-15l0-44c0-8 6-14 14-14 9 0 15 6 15 14l0 44c0 9-6 15-15 15z m-17 28c4 0 8 1 10 4 6 6 6 15 0 21-13 13-31 21-49 21-8 0-15-6-15-14-1-8 6-15 14-15 11-1 22-5 30-13 2-3 6-4 10-4z m17-346c-8 0-14-6-14-14l0-44c0-9 6-15 14-15 9 0 15 6 15 15l0 44c0 8-6 14-15 14z m-315 377c0 9-7 15-15 15l-44 0c-8 0-15-6-15-15 0-8 7-14 15-14l44 0c8 0 15 6 15 14z m-78-750l-44 0c-8 0-15-6-15-14 0-9 7-15 15-15l44 0c8 0 15 6 15 15 0 8-7 14-15 14z m106 0l-44 0c-8 0-15-6-15-14 0-9 7-15 15-15l44 0c8 0 15 6 15 15 0 8-7 14-15 14z m106 0l-44 0c-8 0-15-6-15-14 0-9 7-15 15-15l44 0c8 0 14 6 14 15 0 8-6 14-14 14z m106 0l-44 0c-9 0-15-6-15-14 0-9 6-15 15-15l44 0c8 0 14 6 14 15 0 8-6 14-14 14z m-406 290l-151-151 0 126c0 8-7 15-15 15-8 0-14-7-14-15l0-162c0-8 6-14 14-14l162 0c8 0 15 6 15 14 0 8-7 15-15 15l-126 0 151 151c6 6 6 15 0 21-6 6-15 6-21 0z m328-172l-126 0c-8 0-15-7-15-15 0-8 7-14 15-14l162 0c8 0 15 6 15 14l0 162c0 8-7 15-15 15-8 0-15-7-15-15l0-126-151 151c-6 6-15 6-21 0-6-6-6-15 0-21l151-151z m-458 500l126 0c8 0 15 7 15 15 0 8-7 15-15 15l-162 0c-8 0-14-7-14-15l0-162c0-8 6-15 14-15 8 0 15 7 15 15l0 126 151-151c3-3 7-4 11-4 4 0 7 1 10 4 6 6 6 15 0 21l-151 151z m317-176c4 0 8 1 11 4l151 151 0-126c0-8 7-15 15-15 8 0 15 7 15 15l0 162c0 8-7 15-15 15l-162 0c-8 0-15-7-15-15 0-8 7-15 15-15l126 0-151-151c-6-6-6-15 0-21 3-3 7-4 10-4z" horiz-adv-x="1000" />
<glyph glyph-name="thin-db" unicode="&#xe812;" d="m838 624c0 60-118 124-337 124-163 0-337-43-337-122 0-1 0-2 0-3-1-2-2-5-2-8l0-538c0-78 172-125 338-125 168 0 338 41 338 119l0 544c0 1 0 2 0 3 0 2 0 4 0 6z m-29-553c0-42-127-90-309-90-177 0-309 51-309 96l0 123c55-47 186-72 310-72 123 0 252 24 308 70l0-127z m0 179c0-44-127-93-308-93-181 0-308 49-308 93 0 3-1 5-2 7l0 134c55-47 186-72 310-72 123 0 252 24 308 70l0-139z m0 191c0-44-127-93-308-93-181 0-308 49-308 93 0 3-1 5-2 7l0 127c55-47 186-72 310-72 123 0 252 24 308 70l0-132z m-308 92c-181 0-308 49-308 93 0 44 127 93 308 93 176 0 308-50 308-95 0-43-127-91-308-91z m172-109c0 0 1 0 1 0 25 3 56 11 73 20 7 3 10 12 6 20-4 7-12 10-20 6-13-7-41-14-62-16-8-1-14-9-13-17 1-7 7-13 15-13z m0-184c0 0 1 0 1 0 25 3 56 11 73 20 7 4 10 12 6 20-4 7-12 10-20 6-13-7-41-14-62-16-8-1-14-9-13-17 1-7 7-13 15-13z m0-190c0 0 1 0 1 0 25 3 56 11 73 19 7 4 10 13 6 20-4 7-12 10-20 7-13-7-41-15-62-17-8-1-14-8-13-16 1-8 7-13 15-13z" horiz-adv-x="1000" />
<glyph glyph-name="thin-music" unicode="&#xe813;" d="m852 741c-6 0-11-2-17-5-1 0-90-44-203-44-132 0-208-21-211-22-22-6-39-29-39-51v-103-466c0-33-53-61-117-61-64 0-118 28-118 61 0 34 54 62 118 62 23 0 46-4 65-11 8-3 16 1 19 9 3 8-1 16-9 19-22 8-48 12-75 12-83 0-147-40-147-91 0-51 64-91 147-91 82 0 147 40 147 91v431c1 0 1 0 2 0 5 0 11 1 16 3 1 1 75 32 202 32 175 0 216 26 221 29 0 1 0 1 0 1v-407c0-34-54-60-118-60-63 0-117 30-117 63 0 33 54 65 117 65 0 0 0 0 0 0 22 0 43-6 61-12 8-2 16 0 18 7 3 8-1 18-9 20-21 7-45 14-70 14 0 0 0 0 0 0-82 0-147-43-147-94 0-51 65-94 147-94 83 0 147 40 147 91v465 103c0 20-12 34-30 34z m-16-171c-1-1-40-25-204-25-133 0-210-32-214-33-2-1-3-1-4-1 0 0-2 0-2 5v103c0 9 8 21 17 23 1 0 75 21 203 21 120 0 212 45 216 47 2 1 4 1 4 2 0-1 1-2 1-5v-103c0-11-8-28-17-34z" horiz-adv-x="1000" />
<glyph glyph-name="thin-network" unicode="&#xe814;" d="m353 203l-177 0c-40 0-73-33-73-74l0-103c0-40 33-73 73-73l177 0c41 0 74 33 74 73l0 103c0 41-33 74-74 74z m44-177c0-24-20-44-44-44l-177 0c-24 0-44 20-44 44l0 103c0 25 20 45 44 45l177 0c24 0 44-20 44-45l0-103z m427 177l-177 0c-40 0-73-33-73-74l0-103c0-40 33-73 73-73l177 0c40 0 73 33 73 73l0 103c0 41-33 74-73 74z m44-177c0-24-20-44-44-44l-177 0c-24 0-44 20-44 44l0 103c0 25 20 45 44 45l177 0c24 0 44-20 44-45l0-103z m-456 471l176 0c41 0 74 33 74 74l0 103c0 40-33 73-74 73l-176 0c-41 0-74-33-74-73l0-103c0-41 33-74 74-74z m-44 177c0 24 19 44 44 44l176 0c25 0 44-20 44-44l0-103c0-25-19-44-44-44l-176 0c-25 0-44 19-44 44l0 103z m-103-442c8 0 14 7 14 15l0 74c0 8 7 14 15 14l412 0c8 0 15-6 15-14l0-74c0-8 6-15 14-15 9 0 15 7 15 15l0 74c0 24-20 44-44 44l-191 0 0 88c0 8-7 15-15 15-8 0-15-7-15-15l0-88-191 0c-24 0-44-20-44-44l0-74c0-8 7-15 15-15z" horiz-adv-x="1000" />
<glyph glyph-name="thin-db-network" unicode="&#xe815;" d="m500 747c-127 0-262-34-263-97-1-2-2-4-2-6l0-417c0-60 125-97 250-99l0-60c-25-6-44-29-44-57 0-32 27-58 59-58 32 0 59 26 59 58 0 28-19 51-44 57l0 59c126 3 250 35 250 96l0 421c0 3-1 5-2 7-4 63-137 96-263 96z m0-29c143 0 234-41 234-69 0-28-89-67-234-67-145 0-234 39-234 68 0 28 89 68 234 68z m29-707c0-16-13-29-29-29-16 0-29 13-29 29 0 17 13 30 29 30 16 0 29-13 29-30z m206 212c0-28-89-66-235-66-144 0-235 41-235 70l0 88c46-34 142-52 235-52 93 0 189 18 235 52l0-92z m0 144c-1-2-1-4-1-6 0-29-89-69-234-69-145 0-234 40-234 69 0 2 0 4-1 6l0 95c46-34 142-52 235-52 93 0 189 18 235 53l0-96z m0 147c-1-2-1-4-1-6 0-29-89-68-234-68-145 0-234 39-234 68 0 2 0 4-1 6l0 90c46-34 142-52 235-52 95 0 190 18 235 51l0-89z m-441-488l-44 0c-8 0-15-6-15-15 0-8 7-14 15-14l44 0c8 0 15 6 15 14 0 9-7 15-15 15z m-103 0l-44 0c-8 0-15-6-15-15 0-8 7-14 15-14l44 0c8 0 15 6 15 14 0 9-7 15-15 15z m206 0l-44 0c-8 0-15-6-15-15 0-8 7-14 15-14l44 0c8 0 15 6 15 14 0 9-7 15-15 15z m456 0l-44 0c-8 0-15-6-15-15 0-8 7-14 15-14l44 0c8 0 15 6 15 14 0 9-7 15-15 15z m-103 0l-44 0c-8 0-15-6-15-15 0-8 7-14 15-14l44 0c8 0 15 6 15 14 0 9-7 15-15 15z m-103 0l-44 0c-8 0-15-6-15-15 0-8 7-14 15-14l44 0c8 0 15 6 15 14 0 9-7 15-15 15z" horiz-adv-x="1000" />
<glyph glyph-name="thin-dropbox-upload" unicode="&#xe816;" d="m392 619l93 82 0-291c0-8 7-15 15-15 8 0 15 7 15 15l0 291 93-82c3-2 6-3 10-3 4 0 8 1 11 5 5 6 5 15-2 21l-117 103c-6 4-14 4-20 0l-117-103c-6-6-7-15-2-21 6-6 15-7 21-2z m356-170l-153 77c-7 4-16 1-20-7-3-7-1-16 7-19l153-77c7-4 14-9 20-16l-233-90c-8-4-16-10-22-17-6 7-14 13-22 17l-233 90c6 7 13 12 20 16l153 77c8 3 11 12 7 19-4 8-12 11-20 7l-153-77c-34-17-61-60-61-98l0-221c0-38 28-80 64-94l185-74c17-7 38-10 60-10 22 0 43 3 60 10l185 74c36 14 64 56 64 94l0 221c0 38-27 81-61 98z m-297-460l-185 74c-25 10-45 41-45 67l0 221c0 10 2 21 7 31 1 0 1 0 2-1l237-92c10-4 18-16 18-26l0-74 0-206c0 0 1-1 1-1-13 1-25 3-35 7z m329 141c0-26-21-57-46-67l-185-74c-10-4-22-6-34-7 0 0 0 1 0 1l0 206 0 74c0 10 8 22 18 26l237 92c1 1 1 1 2 1 5-10 8-21 8-31l0-221z" horiz-adv-x="1000" />
<glyph glyph-name="thin-phone-call" unicode="&#xe817;" d="m894 95c-2 14-11 27-28 39l-174 119c-9 6-20 9-30 9-17 0-33-8-43-21l-45-64c-3-5-4-11-4-17-18-3-68-1-150 81-79 79-117 138-112 174 1 0 1 1 2 2 4 1 8 2 11 5l63 47c22 17 26 49 9 73l-125 170c-24 32-52 36-82 10-19-17-51-56-64-80-7-13-10-26-9-39-5-19-15-76 2-154 23-107 84-209 183-305 164-159 309-183 381-183 0 0 0 0 0 0 42 0 71 8 85 13 12 0 25 3 37 11 23 13 62 47 78 66 12 16 17 30 15 44z m-38-25c-14-17-50-48-70-60-3-2-6-3-8-4-20 9-55 27-66 40-5 6-14 7-20 2-7-5-8-14-3-20 10-12 27-23 43-32-13-3-31-6-53-6l0 0c-67 0-204 23-361 175-224 217-182 412-176 433 1 2 1 4 0 6-1 8 1 15 6 24 11 20 41 57 57 72 8 6 14 10 20 10 2 0 9 0 20-16l124-170c8-10 6-24-3-32l-62-47c0 0-1 0-1 0-16 13-39 31-46 42-4 7-13 9-20 4-7-4-9-13-4-20 9-15 32-34 47-45-12-48 25-112 119-206 75-75 129-90 162-90 14 0 25 3 30 6 4 2 7 6 7 11 1 2 1 4 1 8 0 1 0 4 0 6l44 63c7 9 22 11 32 4l174-119c10-6 15-12 16-18 1-5-2-13-9-21z m-373 500c114-35 203-124 238-237 2-7 8-11 14-11 2 0 3 1 5 1 8 3 12 11 9 19-38 122-134 218-257 256-8 2-16-2-19-10-2-8 2-16 10-18z m20 109c171-41 301-178 333-351 1-7 7-12 14-12 1 0 2 0 3 1 8 1 13 9 12 17-34 184-173 330-355 373-8 2-16-3-17-11-2-8 3-15 10-17z" horiz-adv-x="1000" />
<glyph glyph-name="thin-briefcase-2" unicode="&#xe818;" d="m824 644h-154l-25 44-2 5c-14 24-30 54-69 54h-147c-42 0-59-34-72-59l-25-44h-154c-40 0-73-33-73-73v-192c0-16 6-33 15-47v-306c0-40 33-73 73-73h618c40 0 73 33 73 73v306c10 14 15 31 15 47v192c0 40-33 73-73 73z m-443 31c14 27 24 43 46 43h147c20 0 29-14 43-40l20-34h-273l17 31z m472-649c0-24-20-44-44-44h-618c-24 0-44 20-44 44v277c8-5 16-9 24-11l237-59c1 0 3 0 4 0v-15c0-24 18-48 40-54 16-4 32-6 48-6 16 0 33 2 49 6 21 6 39 30 39 54v14c1 0 3 1 4 1l237 59c9 2 17 6 24 11v-277z m-412 192v73c0 8 7 15 15 15h88c8 0 15-7 15-15v-73c0-10-9-23-18-25-27-7-55-7-82 0-9 2-18 15-18 25z m427 161c0-25-21-52-46-58l-234-59v29c0 24-19 44-44 44h-88c-25 0-44-20-44-44v-29l-234 59c-25 6-46 33-46 58v192c0 24 20 44 44 44h648c24 0 44-20 44-44v-192z" horiz-adv-x="1000" />
<glyph glyph-name="thin-card" unicode="&#xe819;" d="m824 659l-648 0c-40 0-73-33-73-74l0-470c0-41 33-74 73-74l648 0c40 0 73 33 73 74l0 470c0 41-33 74-73 74z m44-544c0-25-20-44-44-44l-648 0c-24 0-44 19-44 44l0 470c0 25 20 45 44 45l648 0c24 0 44-20 44-45l0-470z m-103 441l-177 0c-8 0-14-7-14-15l0-191c0-8 6-15 14-15l177 0c8 0 15 7 15 15l0 191c0 8-7 15-15 15z m-15-191l-147 0 0 162 147 0 0-162z m-279 14l-236 0c-8 0-14-6-14-14 0-8 6-15 14-15l236 0c8 0 14 7 14 15 0 8-6 14-14 14z m0-102l-236 0c-8 0-14-7-14-15 0-8 6-15 14-15l236 0c8 0 14 7 14 15 0 8-6 15-14 15z m-133-103l-103 0c-8 0-14-7-14-15 0-8 6-15 14-15l103 0c8 0 15 7 15 15 0 8-7 15-15 15z" horiz-adv-x="1000" />
<glyph glyph-name="thin-support" unicode="&#xe81a;" d="m851 58c-10 31-62 58-113 84-13 7-26 13-37 19-7 4-16 2-20-5-4-7-1-16 6-20 11-7 24-13 38-20 39-20 92-47 98-67 12-41 13-47 13-59 0-4-1-5-1-6-3-3-17-2-27-2-4 0-9 1-14 1l-588 0c-4 0-7-1-11-1-11 0-26 0-29 3-1 1-2 3-2 6 1 5 6 25 15 59 6 25 72 62 193 110 3 1 30 10 45 30 5 6 3 16-3 20-7 5-16 4-21-3-8-10-24-17-31-19-98-39-200-84-212-131-10-41-15-61-15-62 0-1 0-2 0-3 0-11 3-21 10-28 13-12 31-11 51-11 3 0 6 0 10 0l588 0c5 0 9 0 13 0 5 0 9 0 13 0 13 0 26 1 35 10 7 7 10 16 10 27 0 16-1 25-14 68z m-586 248l44 0c8 0 15 3 20 8 9 9 9 22 9 34l0 2c3-2 5-3 8-4 8-20 17-34 26-49 3-5 6-9 8-13 12-19 23-32 36-41 2-1 40-32 83-33 2 0 5 0 8 0 15 0 45 4 81 34 11 9 21 21 32 39 3 5 6 9 9 14 9 14 19 29 27 49 2 1 4 2 6 3l0-1c0-12 0-25 9-34 1-2 3-3 5-4-1-35-9-102-42-114-7 5-15 8-25 8-3 0-7 0-10-1l-71-17c-24-5-39-29-33-53 5-20 22-34 43-34 3 0 7 1 10 1l72 17c23 6 38 30 32 53 0 1 0 1 0 2 45 23 53 100 54 134l29 0c20 0 49 15 60 36 19 43 19 91-1 134-10 22-39 36-59 36l0 0c-4 131-108 235-235 235-127 0-231-104-235-235l0 0c-20 0-49-14-59-36-20-42-20-91 0-134 10-21 39-36 59-36z m348-160l-72-17c-8-2-16 3-17 11-2 8 3 16 10 18l72 17c1 0 2 0 3 0 7 0 13-5 15-11 2-8-3-16-11-18z m49 240c-5 0-10-3-12-7-2-4-6-6-7-6-6-1-10-5-12-10-8-21-17-35-27-50-3-5-6-10-9-15-9-14-17-24-26-31-38-32-65-28-66-28 0 1-1 1-2 1-34 0-66 26-67 27-10 6-19 17-29 32-2 5-5 9-8 13-10 16-19 30-27 51-1 6-7 9-13 10-1 0-5 2-7 6-3 5-7 7-12 7l0 53c0 0 0 0 0 0 8 0 14 4 15 12 0 1 1 46 21 92 25 60 69 91 129 91 147 0 147-173 147-180 0-8 12-14 12-14l0-54z m73 97c11 0 28-9 33-19 15-35 15-75 0-109-5-10-22-19-33-19l-43 0c-1 3-1 8-1 12l0 122c0 4 0 10 1 13l43 0z m-235 235c111 0 202-92 206-206l-15 0c-7 0-12-2-17-5-12 62-50 157-169 157-119 0-160-98-174-161-1 0-1 1-2 1-5 6-12 8-20 8l-15 0c4 114 95 206 206 206z m-268-255c5 11 22 20 33 20l43 0c1-3 1-9 1-13l0-122c0-4 0-9-1-12l-43 0c-11 0-28 9-33 19-15 34-15 74 0 108z" horiz-adv-x="1000" />
<glyph glyph-name="thin-pull" unicode="&#xe81b;" d="m622 360l-107-107 0 465c0 8-7 14-15 14-8 0-15-6-15-14l0-465-107 107c-6 6-15 6-21 0-6-5-6-15 0-20l133-133c2-3 6-4 10-4 4 0 8 1 10 4l133 133c6 5 6 15 0 20-6 6-15 6-21 0z m-303-363l-44 0c-8 0-14-7-14-15 0-8 6-14 14-14l44 0c9 0 15 6 15 14 0 8-6 15-15 15z m-98 15l0 17c0 8-7 14-15 14-8 0-15-6-15-14l0-17c0-14 7-27 18-36 3-2 6-3 9-3 4 0 9 2 11 6 5 7 4 16-2 21-4 3-6 7-6 12z m73 470c0 9-6 15-15 15l-44 0c-8 0-14-6-14-15 0-8 6-14 14-14l44 0c9 0 15 6 15 14z m128-485l-44 0c-8 0-14-7-14-15 0-8 6-14 14-14l44 0c8 0 15 6 15 14 0 8-7 15-15 15z m-25 485c0 9-7 15-15 15l-44 0c-8 0-14-6-14-15 0-8 6-14 14-14l44 0c8 0 15 6 15 14z m-191-100c8 0 15 6 15 14l0 44c0 9-7 15-15 15-8 0-15-6-15-15l0-44c0-8 7-14 15-14z m0-309c8 0 15 6 15 14l0 44c0 9-7 15-15 15-8 0-15-6-15-15l0-44c0-8 7-14 15-14z m0 206c8 0 15 6 15 14l0 44c0 9-7 15-15 15-8 0-15-6-15-15l0-44c0-8 7-14 15-14z m0-103c8 0 15 6 15 14l0 44c0 9-7 15-15 15-8 0-15-6-15-15l0-44c0-8 7-14 15-14z m588 80c-8 0-14-7-14-15l0-44c0-8 6-15 14-15 8 0 15 7 15 15l0 44c0 8-7 15-15 15z m0-103c-8 0-14-7-14-15l0-44c0-8 6-15 14-15 8 0 15 7 15 15l0 44c0 8-7 15-15 15z m0-103c-8 0-14-7-14-15l0-23c0-4-2-7-4-10-5-6-5-15 1-21 3-2 7-3 10-3 4 0 8 1 11 5 7 8 11 18 11 29l0 23c0 8-7 15-15 15z m-269-53l-44 0c-8 0-15-7-15-15 0-8 7-14 15-14l44 0c8 0 15 6 15 14 0 8-7 15-15 15z m233 500l-44 0c-8 0-14-6-14-15 0-8 6-14 14-14l44 0c8 0 15 6 15 14 0 9-7 15-15 15z m36-138c-8 0-14-7-14-15l0-44c0-8 6-15 14-15 8 0 15 7 15 15l0 44c0 8-7 15-15 15z m0 103c-8 0-14-7-14-15l0-44c0-8 6-15 14-15 8 0 15 7 15 15l0 44c0 8-7 15-15 15z m-63-465l-44 0c-8 0-15-7-15-15 0-8 7-14 15-14l44 0c8 0 15 6 15 14 0 8-7 15-15 15z m-103 0l-44 0c-8 0-15-7-15-15 0-8 7-14 15-14l44 0c8 0 15 6 15 14 0 8-7 15-15 15z m27 500l-37 0c-8 0-15-6-15-15 0-8 7-14 15-14l37 0c9 0 15 6 15 14 0 9-6 15-15 15z" horiz-adv-x="1000" />
<glyph glyph-name="thin-desktop" unicode="&#xe81c;" d="m824 747l-648 0c-40 0-73-33-73-73l0-486c0-40 33-73 73-73l648 0c40 0 73 33 73 73l0 486c0 40-33 73-73 73z m44-559c0-24-20-44-44-44l-648 0c-24 0-44 20-44 44l0 74 736 0 0-74z m0 103l-736 0 0 383c0 24 20 44 44 44l648 0c24 0 44-20 44-44l0-383z m-250-245l0 39-30 0 0-44c0-3 1-6 4-9l39-50-262 0 40 50c2 3 3 6 3 9l0 44-30 0 0-39-37-46c-8-11-11-23-6-32 5-10 15-15 29-15l264 0c14 0 24 5 29 15 5 9 2 21-6 32l-37 46z" horiz-adv-x="1000" />
<glyph glyph-name="thin-pass" unicode="&#xe81d;" d="m765 747l-530 0c-40 0-73-33-73-73l0-648c0-40 33-73 73-73l530 0c40 0 73 33 73 73l0 648c0 40-33 73-73 73z m44-721c0-24-20-44-44-44l-530 0c-24 0-44 20-44 44l0 648c0 24 20 44 44 44l530 0c24 0 44-20 44-44l0-648z m-308 605c-98 0-179-80-179-178 0-98 81-178 179-178 98 0 178 80 178 178 0 98-80 178-178 178z m125-97c-18-7-35-13-53-16-4 29-13 56-24 76 32-11 59-32 77-60z m-125 66c15 0 35-33 44-87-32-4-61-3-88 0 9 54 29 87 44 87z m-48-6c-11-20-20-47-25-77-24 4-44 9-54 13 18 30 46 53 79 64z m-91-195c-6 17-10 35-10 54 0 18 3 34 9 50 11-4 34-11 64-16-1-11-2-23-2-34 0-12 1-24 2-35-29-6-51-14-63-19z m13-26c11 4 30 10 54 15 4-29 13-56 24-76-32 11-59 33-78 61z m126-67c-15 0-35 33-44 87 26 3 56 5 88 1-9-55-29-88-44-88z m-47 117c-1 9-1 19-1 30 0 11 0 21 1 30 15-1 30-2 47-2 15 0 31 1 47 2 1-9 1-19 1-30 0-10 0-20-1-29-34 3-66 2-94-1z m95-111c11 20 20 48 25 78 17-4 35-9 53-16-18-29-46-51-78-62z m28 107c1 11 2 23 2 34 0 12-1 24-2 35 21 4 42 11 62 20 7-17 11-36 11-55 0-19-4-36-10-53-21 9-42 15-63 19z m-245-238l-31 0c-9 0-14-5-14-13l0-99c0-9 6-14 14-14 7 0 13 5 13 14l0 28 19 0c25 0 44 17 44 42 0 26-19 42-45 42z m0-60l-18 0 0 37 18 0c11 0 18-8 18-19 0-10-7-18-18-18z m134 48c-3 8-10 15-19 15-9 0-16-7-19-15l-35-96c-1-1-2-3-2-6 0-7 6-12 13-12 8 0 11 4 13 9l5 17 49 0 6-17c1-5 5-9 13-9 6 0 12 5 12 11 0 2-1 4-2 7l-34 96z m-36-64l17 51 0 0 16-51-33 0z m119 42c0 7 7 11 14 11 11 0 16-5 24-5 7 0 11 6 11 13 0 14-24 18-34 18-24 0-44-16-44-40 0-41 59-29 59-50 0-8-6-15-18-15-11 0-21 7-30 7-7 0-11-6-11-12 0-17 29-20 42-20 25 0 46 15 46 41 0 45-59 34-59 52z m109 0c0 7 7 11 14 11 11 0 16-5 24-5 7 0 11 6 11 13 0 14-24 18-34 18-24 0-44-16-44-40 0-41 59-29 59-50 0-8-6-15-18-15-11 0-21 7-30 7-7 0-11-6-11-12 0-17 29-20 42-20 25 0 46 15 46 41 0 45-59 34-59 52z" horiz-adv-x="1000" />
<glyph glyph-name="thin-picture" unicode="&#xe81e;" d="m824 747l-530 0c-40 0-73-33-73-73l0-74-45 0c-40 0-73-33-73-73l0-501c0-40 33-73 73-73l530 0c41 0 74 33 74 73l0 89 44 0c40 0 73 33 73 73l0 486c0 40-33 73-73 73z m-74-721c0-24-20-44-44-44l-530 0c-24 0-44 20-44 44l0 501c0 24 20 44 44 44l45 0 29 0 456 0c24 0 44-20 44-44l0-501z m118 162c0-24-20-44-44-44l-44 0 0 383c0 40-33 73-74 73l-456 0 0 74c0 24 20 44 44 44l530 0c24 0 44-20 44-44l0-486z m-294 162c40 0 73 33 73 74 0 40-33 73-73 73-41 0-74-33-74-73 0-41 33-74 74-74z m0 118c24 0 44-20 44-44 0-25-20-45-44-45-25 0-45 20-45 45 0 24 20 44 45 44z m17-243c-18 15-46 15-64 0l-55-46-103 102c-16 17-45 17-62 1l-140-127c-6-5-7-15-1-21 5-6 14-6 20-1l140 128c7 5 17 5 23-1l200-200c2-3 6-4 10-4 4 0 7 1 10 4 6 6 6 15 0 21l-77 77 54 44c7 6 20 6 27 1l124-100c3-2 6-3 9-3 4 0 9 2 11 6 6 6 5 15-2 20l-124 99z" horiz-adv-x="1000" />
<glyph glyph-name="thin-email" unicode="&#xe81f;" d="m824 659l-648 0c-40 0-73-33-73-74l0-470c0-41 33-74 73-74l648 0c40 0 73 33 73 74l0 470c0 41-33 74-73 74z m44-544c0-25-20-44-44-44l-648 0c-24 0-44 19-44 44l0 470c0 25 20 45 44 45l648 0c24 0 44-20 44-45l0-470z m-54 482l-279-241c-19-17-51-17-70 0l-279 241c-6 5-15 4-21-2-5-6-4-15 2-21l279-241c15-13 34-19 54-19 20 0 39 6 54 19l279 241c6 6 7 15 2 21-6 6-15 7-21 2z" horiz-adv-x="1000" />
<glyph glyph-name="thin-push" unicode="&#xe820;" d="m378 590l107 107 0-435c0-8 7-15 15-15 8 0 15 7 15 15l0 435 107-107c3-3 7-5 10-5 4 0 8 2 11 5 6 5 6 15 0 21l-133 132c-5 6-15 6-20 0l-133-132c-5-6-5-16 0-21 6-6 15-6 21 0z m-84-122c0 8-6 14-15 14l-44 0c-8 0-14-6-14-14 0-8 6-15 14-15l44 0c9 0 15 7 15 15z m103 0c0 8-6 14-15 14l-44 0c-8 0-14-6-14-14 0-8 6-15 14-15l44 0c9 0 15 7 15 15z m-176-471l0 17c0 8-7 15-15 15-8 0-15-7-15-15l0-17c0-14 7-27 18-35 3-2 6-3 9-3 4 0 9 2 12 6 4 6 3 15-3 20-4 3-6 7-6 12z m201-15l-44 0c-8 0-14-6-14-14 0-9 6-15 14-15l44 0c9 0 15 6 15 15 0 8-7 14-15 14z m-216 385c8 0 15 6 15 15l0 44c0 8-7 14-15 14-8 0-15-6-15-14l0-44c0-9 7-15 15-15z m0-309c8 0 15 7 15 15l0 44c0 8-7 14-15 14-8 0-15-6-15-14l0-44c0-8 7-15 15-15z m0 206c8 0 15 6 15 15l0 44c0 8-7 14-15 14-8 0-15-6-15-14l0-44c0-9 7-15 15-15z m0-103c8 0 15 6 15 15l0 44c0 8-7 14-15 14-8 0-15-6-15-14l0-44c0-9 7-15 15-15z m113-179l-44 0c-8 0-14-6-14-14 0-9 6-15 14-15l44 0c9 0 15 6 15 15 0 8-6 14-15 14z m475 259c-8 0-14-7-14-15l0-44c0-8 6-15 14-15 8 0 15 7 15 15l0 44c0 8-7 15-15 15z m-269-259l-44 0c-8 0-15-6-15-14 0-9 7-15 15-15l44 0c8 0 15 6 15 15 0 8-7 14-15 14z m269 465c-8 0-14-7-14-15l0-44c0-8 6-15 14-15 8 0 15 7 15 15l0 44c0 8-7 15-15 15z m0-103c-8 0-14-7-14-15l0-44c0-8 6-15 14-15 8 0 15 7 15 15l0 44c0 8-7 15-15 15z m0-309c-8 0-14-7-14-15l0-23c0-4-2-7-4-10-5-6-5-15 1-20 3-3 7-4 10-4 4 0 8 2 11 5 7 8 11 18 11 29l0 23c0 8-7 15-15 15z m0 103c-8 0-14-7-14-15l0-44c0-8 6-15 14-15 8 0 15 7 15 15l0 44c0 8-7 15-15 15z m-139 344l-37 0c-8 0-15-6-15-14 0-8 7-15 15-15l37 0c9 0 15 7 15 15 0 8-6 14-15 14z m-27-500l-44 0c-8 0-15-6-15-14 0-9 7-15 15-15l44 0c8 0 15 6 15 15 0 8-7 14-15 14z m130 500l-44 0c-8 0-14-6-14-14 0-8 6-15 14-15l44 0c9 0 15 7 15 15 0 8-6 14-15 14z m-27-500l-44 0c-8 0-15-6-15-14 0-9 7-15 15-15l44 0c8 0 15 6 15 15 0 8-7 14-15 14z" horiz-adv-x="1000" />
<glyph glyph-name="thin-house" unicode="&#xe821;" d="m897 644c0 57-46 103-103 103l-588 0c-57 0-103-46-103-103l0-132c0-29 12-55 31-74-1-4-2-9-2-14l0-398c0-40 33-73 74-73l29 0 192 0 367 0c41 0 74 33 74 73l0 398c0 5-1 10-2 14 19 19 31 45 31 74l0 132z m-382 74l162 0 0-206c0-41-33-74-74-74l-15 0c-40 0-73 33-73 74l0 206z m-191-103l0 103 161 0 0-206c0-41-33-74-73-74l-15 0c-40 0-73 33-73 74l0 103z m-192-103l0 132c0 41 33 74 74 74l88 0 0-103 0-103c0-41-33-74-73-74l-15 0c-41 0-74 33-74 74z m280-530l-162 0 0 324 162 0 0-324z m426 44c0-24-19-44-44-44l-353 0 0 339c0 8-6 14-14 14l-192 0c-8 0-14-6-14-14l0-339-15 0c-24 0-44 20-44 44l0 393c13-6 28-10 44-10l15 0c37 0 70 20 88 50 18-30 51-50 88-50l15 0c37 0 70 20 88 50 18-30 51-50 88-50l15 0c37 0 70 20 88 50 18-30 51-50 89-50l14 0c16 0 31 4 44 10l0-393z m30 486c0-41-33-74-74-74l-14 0c-41 0-74 33-74 74l0 206 88 0c41 0 74-33 74-74l0-132z m-103-177l-236 0c-8 0-14-6-14-14l0-221c0-8 6-15 14-15l236 0c8 0 15 7 15 15l0 221c0 8-7 14-15 14z m-15-220l-206 0 0 191 206 0 0-191z m-456 14l30 0c8 0 14 7 14 15 0 8-6 15-14 15l-30 0c-8 0-15-7-15-15 0-8 7-15 15-15z" horiz-adv-x="1000" />
<glyph glyph-name="thin-download" unicode="&#xe822;" d="m491 376c2-3 6-4 9-4 3 0 7 1 9 4l89 73c6 5 7 15 2 21-6 6-15 7-21 2l-64-54 0 292c0 9-7 15-15 15-8 0-15-6-15-15l0-292-64 54c-6 5-15 4-21-2-5-6-4-16 2-21l89-73z m404-71l1 0-152 288-141 0 0-30 124 0 131-250-211 0c-16 0-29-13-29-29l0-15 0-51c0-21-20-37-44-37l-147 0c-25 0-45 16-45 37l0 51 0 15c0 16-13 29-29 29l-211 0 132 250 123 0 0 30-141 0-151-288 0 0c-1-2-2-4-2-6l0-250c0-41 33-74 73-74l648 0c40 0 73 33 73 74l0 250c0 2-1 4-2 6z m-27-256c0-25-20-45-44-45l-648 0c-24 0-44 20-44 45l0 235 221 0 0-15 0-51c0-37 33-67 74-67l147 0c40 0 73 30 73 67l0 51 0 15 221 0 0-235z" horiz-adv-x="1000" />
<glyph glyph-name="thin-storage" unicode="&#xe823;" d="m895 372l0 0-151 287h-488l-151-287 0 0c-1-3-2-5-2-7v-250c0-41 33-74 73-74h648c40 0 73 33 73 74v250c0 2-1 4-2 7z m-621 258h453l131-251h-211c-16 0-29-13-29-29v-15-51c0-20-20-37-44-37h-148c-24 0-44 17-44 37v51 15c0 16-13 29-29 29h-211l132 251z m594-515c0-25-20-44-44-44h-648c-24 0-44 19-44 44v235h221v-15-51c0-37 33-66 73-66h148c40 0 73 29 73 66v51 15h221v-235z" horiz-adv-x="1000" />
<glyph glyph-name="thin-milk" unicode="&#xe824;" d="m891 495l-156 141v45c0 37-33 66-73 66h-324c-40 0-73-29-73-66v-45l-157-143c-1 0-1 0-1 0 0 0 0-1 0-1-1-1-2-2-3-3 0-1 0-1 0-2-1-1-1-2-1-4 0 0 0 0 0-1v-485c0-24 20-44 44-44h382c4 0 7 0 10 1 1-1 3-1 5-1h309c24 0 44 20 44 44v484c0 0 0 1 0 1 0 6-2 10-6 13z m-170 115l123-113h-247l124 113z m-427 71c0 20 20 37 44 37h324c24 0 44-17 44-37v-37h-412v37z m250-684c0-8-7-15-15-15h-382c-8 0-15 7-15 15v471h412v-471z m-388 500l129 118h398l-130-118h-397z m712-500c0-8-7-15-15-15h-282c1 5 2 10 2 15v471h295v-471z" horiz-adv-x="1000" />
<glyph glyph-name="thin-external-right" unicode="&#xe825;" d="m119 445c8 0 15 6 15 14l0 45c0 8-7 14-15 14-8 0-15-6-15-14l0-45c0-8 7-14 15-14z m0-103c8 0 15 6 15 14l0 45c0 8-7 14-15 14-8 0-15-6-15-14l0-45c0-8 7-14 15-14z m0-103c8 0 15 6 15 15l0 44c0 8-7 14-15 14-8 0-15-6-15-14l0-44c0-9 7-15 15-15z m15-191l0 44c0 8-7 14-15 14-8 0-15-6-15-14l0-44c0-9 7-15 15-15 8 0 15 6 15 15z m-15 88c8 0 15 6 15 15l0 44c0 8-7 14-15 14-8 0-15-6-15-14l0-44c0-9 7-15 15-15z m61 479l44 0c8 0 15 6 15 15 0 8-7 14-15 14l-44 0c-8 0-15-6-15-14 0-9 7-15 15-15z m-61-67c8 0 15 6 15 14l0 9c0 9 2 17 7 25 5 7 4 16-3 20-7 5-16 3-21-3-8-13-13-27-13-42l0-9c0-8 7-14 15-14z m164 67l44 0c8 0 15 6 15 15 0 8-7 14-15 14l-44 0c-8 0-15-6-15-14 0-9 7-15 15-15z m103 0l44 0c8 0 15 6 15 15 0 8-7 14-15 14l-44 0c-8 0-15-6-15-14 0-9 7-15 15-15z m-216-632c-11 2-21 8-28 17-5 7-14 8-20 3-7-5-8-14-3-21 11-15 27-25 46-28 0 0 1 0 2 0 7 0 13 5 15 12 1 8-4 15-12 17z m598 43c-8 2-16-3-18-10-3-11-10-21-19-27-7-4-9-13-4-20 2-4 7-7 12-7 3 0 5 1 8 2 16 11 27 26 31 44 2 8-2 16-10 18z m-2 206c-8 0-15-6-15-14l0-44c0-9 7-15 15-15 8 0 15 6 15 15l0 44c0 8-7 14-15 14z m0-103c-8 0-15-6-15-14l0-44c0-9 7-15 15-15 8 0 15 6 15 15l0 44c0 8-7 14-15 14z m0 206c-8 0-15-6-15-14l0-44c0-9 7-15 15-15 8 0 15 6 15 15l0 44c0 8-7 14-15 14z m-496-353l-44 0c-8 0-15-6-15-14 0-9 7-15 15-15l44 0c8 0 15 6 15 15 0 8-7 14-15 14z m412 0l-44 0c-8 0-15-6-15-14 0-9 7-15 15-15l44 0c8 0 15 6 15 15 0 8-7 14-15 14z m-103 0l-44 0c-8 0-15-6-15-14 0-9 7-15 15-15l44 0c8 0 15 6 15 15 0 8-7 14-15 14z m-206 0l-44 0c-8 0-15-6-15-14 0-9 7-15 15-15l44 0c8 0 15 6 15 15 0 8-7 14-15 14z m103 0l-44 0c-8 0-15-6-15-14 0-9 7-15 15-15l44 0c8 0 15 6 15 15 0 8-7 14-15 14z m415 562l-218 199c-4 4-11 5-16 3-5-2-9-8-9-14l0-120c-33-1-110-10-183-53-75-43-165-134-165-320 0-8 7-14 15-14 8 0 15 6 15 14 0 67 78 204 318 214l0-118c0-5 4-11 9-13 5-2 12-1 16 2l218 198c3 3 5 7 5 11 0 4-2 8-5 11z m-213-176l0 100c0 4-2 7-5 10-2 3-6 4-10 4 0 0 0 0 0 0-167 0-268-62-320-129 59 223 290 230 320 230 8 0 15 7 15 15l0 101 181-166-181-165z" horiz-adv-x="1000" />
<glyph glyph-name="thin-email-open" unicode="&#xe826;" d="m815 424l-109-74 0 150c0 8-7 15-15 15l-382 0c-8 0-15-7-15-15l0-150-109 74c-7 5-16 3-21-4-4-6-3-16 4-20l275-188c16-10 37-16 57-16 20 0 41 6 57 16l275 188c7 4 8 14 4 20-5 7-14 9-21 4z m-275-187c-21-15-58-15-80 0l-139 94c2 2 3 5 3 8l0 147 353 0 0-147c0-3 1-6 2-8l-139-94z m335 244l-319 245c-15 12-35 18-56 18-21 0-41-6-56-18l-319-245c-13-10-22-30-22-47l0-404c0-41 33-74 73-74l648 0c40 0 73 33 73 74l0 404c0 17-9 37-22 47z m-7-451c0-25-20-45-44-45l-648 0c-24 0-44 20-44 45l0 404c0 8 6 19 11 23l319 246c10 7 24 12 38 12 14 0 28-5 38-12l319-246c5-4 11-15 11-23l0-404z m-265 397l-206 0c-8 0-15-7-15-15 0-8 7-15 15-15l206 0c8 0 15 7 15 15 0 8-7 15-15 15z m0-59l-206 0c-8 0-15-7-15-15 0-8 7-14 15-14l206 0c8 0 15 6 15 14 0 8-7 15-15 15z" horiz-adv-x="1000" />
<glyph glyph-name="thin-planet" unicode="&#xe827;" d="m500 747c-219 0-397-178-397-397 0-219 178-397 397-397 219 0 397 178 397 397 0 219-178 397-397 397z m293-619c-14 10-47 32-101 50 12 48 19 101 20 157h155c-3-77-30-149-74-207z m-660 207h155c1-56 8-109 20-157-54-18-87-40-101-50-44 58-71 130-74 207z m74 236c13-10 46-32 100-51-11-47-18-99-19-155h-155c3 77 30 148 74 206z m308-80c59 1 109 9 149 21 11-45 18-95 19-147h-168v126z m0 29v196c59-10 111-78 141-176-38-10-85-18-141-20z m-30 196v-196c-56 2-103 10-141 20 30 98 82 166 141 176z m0-225v-126h-168c1 52 8 102 19 147 41-12 90-20 149-21z m-168-156h168v-127c-59-2-108-10-148-21-12 45-19 96-20 148z m168-157v-194c-58 9-110 78-140 175 38 10 84 18 140 19z m30-194v194c56-1 102-9 140-19-30-97-82-166-140-175z m0 224v127h168c-1-52-8-103-20-148-40 11-89 19-148 21z m197 157c-1 56-8 108-19 155 54 19 88 41 101 51 43-58 70-129 73-206h-155z m63 229c-12-8-41-28-90-45-21 67-51 121-88 156 70-19 131-58 178-111z m-372 111c-37-35-67-89-88-156-48 17-78 37-90 45 47 53 108 92 178 111z m-177-600c12 9 42 28 90 45 20-66 50-120 87-155-69 19-130 58-177 110z m371-110c37 35 67 88 87 155 48-17 78-36 90-45-47-52-108-91-177-110z" horiz-adv-x="1000" />
<glyph glyph-name="thin-pointer" unicode="&#xe828;" d="m791 438c-17 0-33-6-46-16-6 34-36 60-72 60-21 0-40-9-53-23-13 23-37 38-65 38-16 0-31-6-44-15v192c0 40-33 73-73 73-41 0-74-33-74-73v-408l-108 99c-30 27-75 29-101 3-25-26-26-72-2-103l134-172c20-26 56-66 79-89l5-5c26-26 75-46 111-46h73c9 0 15 6 15 15 0 8-6 14-15 14h-73c-29 0-70 17-90 38l-5 5c-23 22-57 61-77 86l-133 172c-16 20-16 49-1 64 15 15 42 13 60-3l128-118v-8c0-8 7-15 15-15 8 0 15 7 15 15v456c0 24 19 44 44 44 24 0 44-20 44-44v-250-45-44c0-8 7-14 15-14 8 0 14 6 14 14v44 45c0 24 20 44 44 44 25 0 45-20 45-44v-15-44-44c0-8 6-15 14-15 8 0 15 7 15 15v44 44c0 24 20 44 44 44 24 0 44-20 44-44v-44-30-29c0-8 7-15 15-15 8 0 15 7 15 15v29 30c0 24 20 44 44 44 24 0 44-20 44-44v-147-15-132c0-49-36-89-81-89h-96c-8 0-14-6-14-14 0-9 6-15 14-15h96c61 0 110 53 110 118v132 15 147c0 40-33 73-73 73z" horiz-adv-x="1000" />
<glyph glyph-name="thin-email-search" unicode="&#xe829;" d="m695 448c0 162-132 294-295 294-162 0-294-132-294-294 0-163 132-295 294-295 163 0 295 132 295 295z m-295-265c-145 0-264 119-264 265 0 146 119 264 264 264 146 0 265-118 265-264 0-146-119-265-265-265z m-52 464c-90-24-153-106-153-199 0-37 9-72 27-103 3-5 8-8 13-8 2 0 5 1 7 2 7 4 10 13 6 20-16 27-24 58-24 89 0 80 54 150 132 170 7 2 12 10 10 18-2 8-10 13-18 11z m530-579l-169 169c-17 17-46 17-63 0l-31-31c-17-17-17-45 0-63l169-168c10-11 26-17 42-17 8 0 15 2 22 5l2 1 38 38 1 2c9 20 4 49-11 64z m-15-50l-29-29c-9-3-23 0-29 6l-169 169c-6 6-6 15 0 21l31 31c3 3 7 5 10 5 4 0 8-2 11-5l169-169c6-6 9-19 6-29z" horiz-adv-x="1000" />
<glyph glyph-name="thin-external-left" unicode="&#xe82a;" d="m219 71c0-9 7-15 15-15 8 0 15 6 15 15l0 44c0 8-7 14-15 14-8 0-15-6-15-14l0-44z m49-82c-9 6-15 15-18 26-2 8-10 13-18 11-8-2-12-10-11-18 5-18 16-34 31-44 3-2 5-2 8-2 5 0 10 2 13 6 4 7 2 16-5 21z m196-7l-44 0c-8 0-14-6-14-14 0-9 6-15 14-15l44 0c9 0 15 6 15 15 0 8-6 14-15 14z m-102 0l-45 0c-8 0-14-6-14-14 0-9 6-15 14-15l45 0c8 0 14 6 14 15 0 8-6 14-14 14z m310 633l44 0c9 0 15 6 15 15 0 8-6 14-15 14l-44 0c-8 0-14-6-14-14 0-9 6-15 14-15z m103 0l44 0c9 0 15 6 15 15 0 8-6 14-15 14l-44 0c-8 0-14-6-14-14 0-9 6-15 14-15z m-208-633l-44 0c-8 0-14-6-14-14 0-9 6-15 14-15l44 0c9 0 15 6 15 15 0 8-6 14-15 14z m-333 280c8 0 15 6 15 14l0 45c0 8-7 14-15 14-8 0-15-6-15-14l0-45c0-8 7-14 15-14z m335 353l45 0c8 0 14 6 14 15 0 8-6 14-14 14l-45 0c-8 0-14-6-14-14 0-9 6-15 14-15z m-350-441c0-9 7-15 15-15 8 0 15 6 15 15l0 44c0 8-7 14-15 14-8 0-15-6-15-14l0-44z m662 241c-8 0-14-6-14-14l0-45c0-8 6-14 14-14 8 0 15 6 15 14l0 45c0 8-7 14-15 14z m0-103c-8 0-14-6-14-14l0-45c0-8 6-14 14-14 8 0 15 6 15 14l0 45c0 8-7 14-15 14z m-211-330l-44 0c-8 0-14-6-14-14 0-9 6-15 14-15l44 0c9 0 15 6 15 15 0 8-6 14-15 14z m211 227c-8 0-14-6-14-14l0-44c0-9 6-15 14-15 8 0 15 6 15 15l0 44c0 8-7 14-15 14z m0 309c-8 0-14-6-14-14l0-45c0-8 6-14 14-14 8 0 15 6 15 14l0 45c0 8-7 14-15 14z m1 95c-5 6-14 8-21 3-6-5-8-14-3-21 6-7 9-16 9-24l0-9c0-8 6-14 14-14 8 0 15 6 15 14l0 9c0 15-5 29-14 42z m-109-631l-44 0c-8 0-14-6-14-14 0-9 6-15 14-15l44 0c8 0 15 6 15 15 0 8-7 14-15 14z m108 124c-8 0-14-6-14-14l0-44c0-9 6-15 14-15 8 0 15 6 15 15l0 44c0 8-7 14-15 14z m-24-105c-7-9-17-16-28-18-8-1-13-9-11-17 1-7 7-12 14-12 1 0 2 0 3 0 18 4 34 14 45 28 5 7 4 16-2 21-6 5-16 4-21-2z m-505 611l0 120c0 6-4 12-9 14-5 2-12 1-16-3l-218-199c-3-3-5-7-5-11 0-4 2-8 5-11l218-198c5-3 11-4 16-2 5 2 9 8 9 13l0 118c240-10 318-147 318-214 0-8 7-14 15-14 8 0 15 6 15 14 0 331-279 369-348 373z m-15-130c0 0 0 0 0 0-4 0-8-1-10-4-3-3-5-6-5-10l0-100-181 165 181 166 0-101c0-8 7-15 15-15 30 0 261-7 320-230-52 67-153 129-320 129z" horiz-adv-x="1000" />
<glyph glyph-name="thin-shirt" unicode="&#xe82b;" d="m809 622l-88 0 0 88c0 21-12 30-23 30-2 0-3 0-5-1 0 0-1 1-2 1l-382 0c-1 0-1-1-2-1-2 1-3 1-5 1-11 0-23-9-23-30l0-88-88 0c-40 0-73-33-73-73l0-515c0-41 33-74 73-74l618 0c40 0 73 33 73 74l0 515c1 40-32 73-73 73z m-500 80l160-171c2-2 3-5 3-6 0-1-2-3-5-4l-152-65c-2-1-3-1-4-1 0 0-2 0-2 5l0 242z m176-713l-294 0c-24 0-44 20-44 45l0 515c0 24 20 44 44 44l88 0 0-133c0-20 14-34 32-34 5 0 11 1 16 3l152 65c2 1 4 2 6 4l0-509z m15 545c-1 6-5 12-9 17l-149 159 316 0-149-159c-4-5-7-11-9-17z m191 168l0-242c0-5-2-5-2-5-1 0-2 0-4 1l-152 65c-3 1-4 3-5 4 0 1 1 4 3 6l160 171z m162-668c0-25-20-45-44-45l-294 0 0 509c2-2 4-3 6-4l152-65c5-2 11-3 16-3 18 0 32 14 32 34l0 133 88 0c24 0 44-20 44-44l0-515z m-103 294l-118 0c-8 0-14-7-14-15 0-8 6-15 14-15l118 0c8 0 15 7 15 15 0 8-7 15-15 15z" horiz-adv-x="1000" />
<glyph glyph-name="thin-document-edit" unicode="&#xe82c;" d="m691 394c-8 0-14-6-14-15l0-382c0-8-7-15-15-15l-515 0c-8 0-15 7-15 15l0 530 147 0c25 0 45 19 45 44l0 147 338 0c8 0 15-7 15-15l0-29c0-8 6-15 14-15 8 0 15 7 15 15l0 29c0 24-20 44-44 44l-338 0c-20 0-47-11-61-25l-135-135c-14-14-25-41-25-60l0-530c0-24 20-44 44-44l515 0c24 0 44 20 44 44l0 382c0 9-7 15-15 15z m-542 172l135 135c2 3 6 5 10 8l0-138c0-8-6-15-15-15l-138 0c3 4 5 8 8 10z m597 74c-6 6-15 6-21 0l-323-309c-2-1-3-3-4-5l-44-118c-2-6-1-12 4-16 3-2 6-4 10-4 2 0 4 1 6 2l118 59c1 0 3 1 4 2l309 309c5 6 5 15 0 21l-59 59z m-269-366l-82-41 29 79 311 297 38-38-296-297z m347 458l-6 0-59-58 79-80 59 59 0 6c0 58-48 73-73 73z m14-96l-38 38 29 29c12-2 36-9 39-38l-30-29z" horiz-adv-x="1000" />
<glyph glyph-name="thin-document-delete" unicode="&#xe82d;" d="m721 188c-8 0-15-6-15-14l0-177c0-8-7-15-15-15l-500 0c-8 0-15 7-15 15l0 530 148 0c24 0 44 19 44 44l0 147 323 0c8 0 15-7 15-15l0-235c0-8 7-15 15-15 8 0 14 7 14 15l0 235c0 24-19 44-44 44l-323 0c-20 0-47-11-61-25l-135-135c-14-14-25-41-25-60l0-530c0-24 20-44 44-44l500 0c25 0 44 20 44 44l0 177c0 8-6 14-14 14z m-528 378l135 135c2 3 6 5 10 8l0-138c0-8-6-15-14-15l-139 0c3 4 5 8 8 10z m548-245l108 107c6 6 6 15 0 21-6 5-15 5-21 0l-107-108-108 108c-5 5-15 5-20 0-6-6-6-15 0-21l107-107-107-108c-6-5-6-15 0-20 2-3 6-5 10-5 4 0 8 2 10 5l108 107 107-107c3-3 7-5 10-5 4 0 8 2 11 5 6 5 6 15 0 20l-108 108z" horiz-adv-x="1000" />
<glyph glyph-name="thin-money" unicode="&#xe82e;" d="m897 652c0 54-118 81-235 81-117 0-236-27-236-81 0-1 1-2 1-4 0-1-1-2-1-3v-255c-28 3-58 5-88 5-102 0-206-21-230-62-3-3-5-7-5-11v-273c0-53 121-82 235-82 114 0 236 24 236 79v276c0 4-2 8-6 11-14 24-57 42-112 52v50c42-26 124-40 206-40 81 0 163 14 206 40v-47c0-18-73-52-206-52-19 0-37 1-55 2-8 1-15-5-16-13 0-8 6-15 14-16 18-1 38-2 57-2 81 0 163 13 206 40v-48c0-17-73-51-206-51-18 0-35 1-52 2-9 1-15-6-16-14-1-8 6-15 14-15 17-2 35-2 54-2 81 0 163 13 206 39v-50c0-18-71-50-206-50-18 0-35 1-52 2-8 1-15-6-16-14 0-8 6-15 14-15 18-2 36-2 54-2 113 0 235 24 235 79v437c0 1 0 2 0 3 0 2 0 3 0 4z m-353-606c0-18-71-50-206-50-128 0-206 35-206 53v47c43-26 125-39 206-39 82 0 164 13 206 39v-50z m0 92c0-18-73-52-206-52-133 0-206 34-206 52v47c43-26 125-40 206-40 82 0 164 14 206 40v-47z m0 88c0-18-73-52-206-52-133 0-206 34-206 52v47c43-26 125-40 206-40 82 0 164 14 206 40v-47z m0 88c0-17-73-51-206-51-133 0-206 34-206 51 0 18 73 52 206 52 133 0 206-34 206-52z m324 162c0-17-73-51-206-51-133 0-206 34-206 51v47c42-26 124-40 206-40 81 0 163 14 206 40v-47z m0 88c0-17-73-51-206-51-133 0-206 34-206 51v47c42-26 124-39 206-39 81 0 163 13 206 39v-47z m-206 37c-133 0-206 34-206 51 0 18 73 52 206 52 133 0 206-34 206-52 0-17-73-51-206-51z" horiz-adv-x="1000" />
<glyph glyph-name="thin-eye" unicode="&#xe82f;" d="m896 363c-1 3-26 59-87 116-57 52-156 114-309 114-265 0-394-226-395-228-3-5-3-10 0-14 1-3 130-244 395-244 293 0 395 242 396 245 2 4 2 8 0 11z m-550 170c0 0 1 1 1 1 44 18 95 29 153 29 58 0 107-9 149-23 1-1 1-2 2-3 26-34 40-75 40-118 0-105-86-191-191-191-105 0-191 86-191 191 0 41 13 81 37 114z m154-396c-222 0-342 182-365 220 15 24 69 102 165 155-14-29-21-60-21-93 0-121 99-220 221-220 122 0 221 99 221 220 0 36-9 71-25 102 109-53 159-140 170-164-16-35-117-220-366-220z m0 176c57 0 103 46 103 103 0 57-46 103-103 103-26 0-51-10-70-28-3-2-5-6-5-10 0-4 2-8 4-11l53-53c6-6 15-6 21 0 6 5 6 15 0 20l-41 42c11 7 24 11 38 11 41 0 74-33 74-74 0-40-33-73-74-73-40 0-73 33-73 73 0 8-7 15-15 15-8 0-15-7-15-15 0-57 46-103 103-103z" horiz-adv-x="1000" />
<glyph glyph-name="thin-settings" unicode="&#xe830;" d="m294 262c-8 0-15-7-15-15l0-162c0-8 7-14 15-14 8 0 15 6 15 14l0 162c0 8-7 15-15 15z m0 176c8 0 15 7 15 15l0 162c0 8-7 15-15 15-8 0-15-7-15-15l0-162c0-8 7-15 15-15z m206-309c-8 0-15-6-15-14l0-30c0-8 7-14 15-14 8 0 15 6 15 14l0 30c0 8-7 14-15 14z m0 177c8 0 15 7 15 15l0 294c0 8-7 15-15 15-8 0-15-7-15-15l0-294c0-8 7-15 15-15z m206 59c-8 0-15-7-15-15l0-265c0-8 7-14 15-14 8 0 15 6 15 14l0 265c0 8-7 15-15 15z m0 176c8 0 15 7 15 15l0 59c0 8-7 15-15 15-8 0-15-7-15-15l0-59c0-8 7-15 15-15z m-412-117c-40 0-73-33-73-74 0-41 33-73 73-73 41 0 74 32 74 73 0 41-33 74-74 74z m0-118c-24 0-44 20-44 44 0 24 20 44 44 44 24 0 44-20 44-44 0-24-20-44-44-44z m206-15c-41 0-73-33-73-73 0-41 32-74 73-74 41 0 74 33 74 74 0 40-33 73-74 73z m0-117c-24 0-44 19-44 44 0 24 20 44 44 44 24 0 44-20 44-44 0-25-20-44-44-44z m206 353c-41 0-74-33-74-74 0-41 33-74 74-74 41 0 74 33 74 74 0 41-33 74-74 74z m0-118c-24 0-44 20-44 44 0 24 20 44 44 44 24 0 44-20 44-44 0-24-20-44-44-44z m118 338l-648 0c-40 0-73-33-73-73l0-648c0-40 33-73 73-73l648 0c40 0 73 33 73 73l0 648c0 40-33 73-73 73z m44-721c0-24-20-44-44-44l-648 0c-24 0-44 20-44 44l0 648c0 24 20 44 44 44l648 0c24 0 44-20 44-44l0-648z" horiz-adv-x="1000" />
<glyph glyph-name="thin-arrow-bottom-right" unicode="&#xe831;" d="m118 336c8 0 14 4 14 12l0 2c0 13 1 26 2 38 1 8-5 16-13 17-8 0-15-5-16-13-1-14-2-27-2-41l0-3c0-8 7-12 15-12 0 0 0 0 0 0z m10 103c1 0 2-1 4-1 6 0 12 5 14 11 4 14 8 27 14 40 3 8-1 16-8 20-8 3-17-1-20-9-5-14-10-28-15-43-2-8 3-16 11-18z m20-196c-4 13-7 27-10 41-1 8-9 13-17 12-8-2-13-9-12-17 3-15 7-30 11-45 2-6 8-10 14-10 2 0 3 0 4 0 8 3 13 11 10 19z m23-58c-3 7-12 10-19 7-8-4-11-13-7-20 7-14 15-27 23-40 3-4 8-6 12-6 3 0 6 0 8 2 7 5 9 14 5 20-8 12-15 25-22 37z m-3 355c2-2 5-2 7-2 5 0 10 2 13 7 7 12 16 23 24 34 5 7 4 16-2 21-6 5-16 4-21-2-9-12-18-25-26-38-4-7-2-16 5-20z m271 173c1 0 2 0 2 0 14 3 28 4 43 5 8 0 14 7 14 15-1 8-8 14-16 14-15-1-30-2-45-5-8-1-14-8-12-16 1-8 7-13 14-13z m388-194c2-5 7-8 13-8 2 0 4 1 7 2 7 4 10 13 6 20-7 13-15 27-24 39-4 7-13 9-20 4-7-4-8-14-4-20 8-12 15-24 22-37z m-491 162c2 0 4 0 6 1 13 6 26 12 39 16 8 3 12 11 9 19-2 8-11 12-18 9-15-5-29-11-43-17-7-4-10-12-7-20 3-5 8-8 14-8z m515-219c4-14 7-27 10-41 1-7 8-12 14-12 1 0 2 0 3 0 8 2 13 9 12 17-3 15-7 30-11 45-3 8-11 12-19 9-8-2-12-10-9-18z m-305 253c14-2 28-4 41-7 2-1 3-1 4-1 7 0 13 5 14 11 2 8-3 16-11 18-14 4-29 6-45 8-8 1-15-4-16-12-1-8 5-16 13-17z m-315-615c-6 6-15 6-21 0-6-5-6-15-1-20 11-12 22-22 34-32 2-2 6-4 9-4 4 0 8 2 11 6 6 6 5 15-1 20-11 9-21 19-31 30z m640 157c-8 2-16-2-18-10-4-13-9-27-14-40-3-7 0-16 8-19 2-1 3-1 5-1 6 0 12 3 14 9 6 14 11 28 15 43 3 8-2 16-10 18z m-129-184c-11-9-22-18-34-26-6-5-8-14-4-20 3-5 8-7 13-7 2 0 5 1 8 3 12 8 25 18 36 28 6 5 7 15 2 21-6 6-15 6-21 1z m45 551c-10 11-21 22-33 32-6 5-16 4-21-2-5-6-4-16 2-21 11-9 21-19 31-29 3-3 7-4 11-4 3 0 7 1 10 4 6 5 6 15 0 20z m-495 47c-5 7-14 9-21 4-12-9-24-18-36-29-6-5-6-14-1-20 3-4 7-5 11-5 4 0 7 1 10 3 11 10 22 19 33 27 7 5 8 14 4 20z m605-311c0 8-7 15-15 14-8 0-14-7-14-15 0-3 0-6 0-9 0-14-1-28-3-42-1-8 5-15 13-16 1 0 1 0 2 0 7 0 14 5 15 13 1 15 2 30 2 45 0 3 0 7 0 10z m-198 334c-13 8-27 15-41 21-7 3-16 0-19-8-4-7 0-16 7-19 13-6 26-12 38-19 2-2 5-2 8-2 5 0 10 2 12 7 4 7 2 16-5 20z m131-537c-7 4-16 2-20-5-8-12-16-23-25-34-5-7-4-16 2-21 3-2 6-3 9-3 5 0 9 2 12 5 9 12 18 24 27 37 4 7 2 16-5 21z m-480-142c-13 5-26 12-38 19-7 4-16 2-20-5-4-7-2-16 5-20 13-8 27-15 41-21 2-1 4-2 6-2 5 0 11 3 13 9 4 7 0 16-7 20z m204-29c-14-2-28-3-42-3-8-1-14-8-14-16 0-8 7-14 15-14 0 0 0 0 0 0 15 0 31 2 46 4 8 1 13 9 12 17-1 8-8 14-17 12z m-104 0c-14 2-28 4-42 8-7 2-15-3-17-11-2-8 2-16 10-18 15-3 30-6 45-8 1 0 1-1 2-1 7 0 14 6 15 13 1 8-5 16-13 17z m204 30c-12-6-26-11-39-15-8-3-12-11-10-19 2-6 8-10 14-10 2 0 3 0 5 1 14 4 29 10 43 17 7 3 10 12 7 19-4 8-12 11-20 7z m8 452c-8 0-15-7-15-15l0-222-290 291c-6 6-15 6-21 0-6-6-6-15 0-21l298-298-237 0c-8 0-15-6-15-15 0-8 7-14 15-14l265 0c8 0 15 6 15 14l0 265c0 8-7 15-15 15z" horiz-adv-x="1000" />
<glyph glyph-name="thin-arrow-right" unicode="&#xe832;" d="m168 540c2-2 5-2 7-2 5 0 10 2 13 7 7 12 16 23 24 34 5 7 4 16-2 21-6 5-16 4-21-2-9-12-18-25-26-38-4-7-2-16 5-20z m77 81c4 0 7 1 10 3 11 10 22 19 33 27 7 5 8 14 4 20-5 7-14 9-21 4-12-9-24-18-36-29-6-5-6-14-1-20 3-4 7-5 11-5z m-127-285c8 0 14 4 14 12l0 2c0 13 1 26 2 38 1 8-5 16-13 17-8 0-15-5-16-13-1-14-2-27-2-41l0-3c0-8 7-12 15-12 0 0 0 0 0 0z m10 103c1 0 2-1 4-1 6 0 12 5 14 11 4 14 8 27 14 40 3 8-1 16-8 20-8 3-17-1-20-9-5-14-10-28-15-43-2-8 3-16 11-18z m20-196c-4 13-7 27-10 41-1 8-9 13-17 12-8-2-13-9-12-17 3-15 7-30 11-45 2-6 8-10 14-10 2 0 3 0 4 0 8 3 13 11 10 19z m188 438c2 0 4 0 6 1 13 6 26 12 39 16 8 3 12 11 9 19-2 8-11 12-18 9-15-5-29-11-43-17-7-4-10-12-7-20 3-5 8-8 14-8z m491-162c2-5 7-8 13-8 2 0 4 1 7 2 7 4 10 13 6 20-7 13-15 27-24 39-4 7-13 9-20 4-7-4-8-14-4-20 8-12 15-24 22-37z m24-57c4-14 7-27 10-41 1-7 8-12 14-12 1 0 2 0 3 0 8 2 13 9 12 17-3 15-7 30-11 45-3 8-11 12-19 9-8-2-12-10-9-18z m-412 251c1 0 2 0 2 0 14 3 28 4 43 5 8 0 14 7 14 15-1 8-8 14-16 14-15-1-30-2-45-5-8-1-14-8-12-16 1-8 7-13 14-13z m107 2c14-2 28-4 41-7 2-1 3-1 4-1 7 0 13 5 14 11 2 8-3 16-11 18-14 4-29 6-45 8-8 1-15-4-16-12-1-8 5-16 13-17z m100-27c13-6 26-12 38-19 2-2 5-2 7-2 6 0 11 2 13 7 4 7 2 16-5 20-13 8-27 15-41 21-7 3-16 0-19-8-4-7 0-16 7-19z m141-64c-10 11-21 22-33 32-6 5-16 4-21-2-5-6-4-16 2-21 11-9 21-19 31-29 3-3 7-4 11-4 3 0 7 1 10 4 6 5 6 15 0 20z m43-467c-7 4-16 2-20-5-8-12-16-23-25-34-5-7-4-16 2-21 3-2 6-3 9-3 5 0 9 2 12 5 9 12 18 24 27 37 4 7 2 16-5 21z m-88-84c-11-9-22-18-34-26-6-5-8-14-4-20 3-5 8-7 13-7 2 0 5 1 8 3 12 8 25 18 36 28 6 5 7 15 2 21-6 6-15 6-21 1z m155 287c0 8-7 15-15 14-8 0-14-7-14-15 0-3 0-6 0-9 0-14-1-28-3-42-1-8 5-15 13-16 1 0 1 0 2 0 7 0 14 5 15 13 1 15 2 30 2 45 0 3 0 7 0 10z m-26-103c-7 2-16-2-18-10-4-13-9-27-14-40-3-7 0-16 8-19 2-1 3-1 5-1 6 0 12 3 14 9 6 14 11 28 15 43 3 8-2 16-10 18z m-217-241c-13-6-26-11-39-15-8-3-12-11-10-19 2-6 8-10 14-10 2 0 3 0 5 1 14 4 29 10 43 17 7 3 10 12 7 19-4 8-12 11-20 7z m-304-1c-13 5-26 12-38 19-7 4-16 2-20-5-4-7-2-16 5-20 13-8 27-15 41-21 2-1 4-2 6-2 5 0 11 3 13 9 4 7 0 16-7 20z m-119 85c-6 6-15 6-21 0-6-5-6-15-1-20 11-12 22-22 34-32 2-2 6-4 9-4 4 0 8 2 11 6 6 6 5 15-1 20-11 9-21 19-31 30z m-60 85c-3 7-12 10-19 7-8-4-11-13-7-20 7-14 15-27 23-40 3-4 8-6 12-6 3 0 6 0 8 2 7 5 9 14 5 20-8 12-15 25-22 37z m279-199c-14 2-28 4-42 8-7 2-15-3-17-11-2-8 2-16 10-18 15-3 30-6 45-8 1 0 1-1 2-1 7 0 14 6 15 13 1 8-5 16-13 17z m104 0c-14-2-28-3-42-3-8-1-14-8-14-16 0-8 7-14 15-14 0 0 0 0 0 0 15 0 31 2 46 4 8 1 13 9 12 17-1 8-8 14-17 12z m-20 183c-6-5-6-15 0-20 3-3 6-5 10-5 4 0 8 2 11 5l191 191c6 6 6 15 0 21l-191 191c-6 6-15 6-21 0-6-6-6-15 0-21l166-166-421 0c-8 0-14-7-14-15 0-8 6-14 14-14l421 0-166-167z" horiz-adv-x="1000" />
<glyph glyph-name="thin-flag" unicode="&#xe833;" d="m748 363c-6 9-6 24 0 33l85 127c7 11 9 23 4 33-5 9-16 15-29 15h-177c-8 0-15-7-15-15 0-8 7-15 15-15h177c0 0 1 0 1 0 0 0 0-1 0-1l-86-128c-12-18-12-47 0-65l86-128c0 0 0-1 0-1 0 0-1 0-1 0h-309l59 44c16 12 29 38 29 59v338c0 24-20 44-44 44h-353v29c0 9-7 15-15 15-8 0-15-6-15-15v-764c0-9 7-15 15-15 8 0 15 6 15 15v323h294c8 0 15 7 15 15 0 8-7 15-15 15h-294v353h353c8 0 15-7 15-15v-338c0-12-9-29-18-36l-71-53c-15-11-15-23-13-29 2-5 8-15 28-15h324c13 0 24 6 29 15 5 10 3 22-4 33l-85 127z" horiz-adv-x="1000" />
<glyph glyph-name="thin-star" unicode="&#xe834;" d="m730-27c-5 0-12 2-18 6l-194 117c-9 6-27 6-35 0l-195-117c-14-9-28-8-36 2-4 5-7 13-4 27l52 221c2 11-3 26-11 33l-172 149c-15 13-13 25-11 30 1 4 7 16 27 17l226 19c10 1 24 11 28 21l88 209c8 18 20 20 25 20 5 0 17-2 25-20l88-209c4-10 18-20 28-21l227-19c19-1 25-13 27-17 1-5 3-17-12-30l-172-149c-8-7-13-23-11-33l52-221c3-14 0-22-4-27-4-5-10-8-18-8z m-589 456l167-144c16-14 25-42 20-63l-50-215 189 114c18 11 48 11 66 0l189-114-50 215c-5 21 4 49 20 63l168 144-221 19c-21 2-45 19-53 38l-86 205-86-205c-8-19-31-36-53-38l-220-19z" horiz-adv-x="1000" />
<glyph glyph-name="thin-calculator" unicode="&#xe835;" d="m294 747c-105 0-191-86-191-191 0-105 86-191 191-191 106 0 191 86 191 191 0 105-85 191-191 191z m0-353c-89 0-162 73-162 162 0 89 73 162 162 162 89 0 162-73 162-162 0-89-73-162-162-162z m0-59c-105 0-191-85-191-191 0-105 86-191 191-191 106 0 191 86 191 191 0 106-85 191-191 191z m0-353c-89 0-162 73-162 162 0 89 73 162 162 162 89 0 162-73 162-162 0-89-73-162-162-162z m412 383c105 0 191 86 191 191 0 105-86 191-191 191-105 0-191-86-191-191 0-105 86-191 191-191z m0 353c89 0 162-73 162-162 0-89-73-162-162-162-89 0-162 73-162 162 0 89 73 162 162 162z m0-383c-105 0-191-85-191-191 0-105 86-191 191-191 105 0 191 86 191 191 0 106-86 191-191 191z m0-353c-89 0-162 73-162 162 0 89 73 162 162 162 89 0 162-73 162-162 0-89-73-162-162-162z m-324 589l-73 0 0 73c0 8-7 15-15 15-8 0-15-7-15-15l0-73-73 0c-8 0-15-7-15-15 0-8 7-15 15-15l73 0 0-73c0-8 7-15 15-15 8 0 15 7 15 15l0 73 73 0c9 0 15 7 15 15 0 8-6 15-15 15z m-4-343c-6 6-15 6-21 0l-63-63-63 63c-6 6-15 6-21 0-6-6-6-15 0-21l63-63-63-63c-6-6-6-15 0-21 3-3 7-4 11-4 3 0 7 1 10 4l63 63 63-63c3-3 7-4 11-4 3 0 7 1 10 4 6 6 6 15 0 21l-63 63 63 63c6 6 6 15 0 21z m240 313l176 0c8 0 15 7 15 15 0 8-7 15-15 15l-176 0c-8 0-15-7-15-15 0-8 7-15 15-15z m176-382l-176 0c-8 0-15-7-15-15 0-8 7-15 15-15l176 0c8 0 15 7 15 15 0 8-7 15-15 15z" horiz-adv-x="1000" />
<glyph glyph-name="thin-safe" unicode="&#xe836;" d="m824 747l-603 0c-41 0-74-33-74-73l0-59c-24 0-44-20-44-44l0-89c0-24 20-44 44-44l0-117c-24 0-44-20-44-44l0-89c0-24 20-44 44-44l0-59c0-40 33-73 74-73l603 0c40 0 73 33 73 73l0 589c0 40-33 73-73 73z m-692-265l0 89c0 8 7 14 15 14l29 0c9 0 15-6 15-14l0-89c0-8-6-14-15-14l-29 0c-8 0-15 6-15 14z m15-308c-8 0-15 6-15 14l0 89c0 8 7 14 15 14l29 0c9 0 15-6 15-14l0-89c0-8-6-14-15-14l-29 0z m721-89c0-24-20-44-44-44l-603 0c-25 0-45 20-45 44l0 59c25 0 45 20 45 44l0 89c0 24-20 44-45 44l0 117c25 0 45 20 45 44l0 89c0 24-20 44-45 44l0 59c0 24 20 44 45 44l603 0c24 0 44-20 44-44l0-589z m-339 500c-121 0-220-99-220-220 0-122 99-221 220-221 122 0 221 99 221 221 0 121-99 220-221 220z m0-411c-105 0-191 85-191 191 0 105 86 191 191 191 106 0 192-86 192-191 0-106-86-191-192-191z m15 263l0 75c0 8-6 15-15 15-8 0-14-7-14-15l0-75c-34-7-59-37-59-72 0-41 33-74 73-74 41 0 74 33 74 74 0 35-25 65-59 72z m-15-116c-24 0-44 19-44 44 0 24 20 44 44 44 25 0 45-20 45-44 0-25-20-44-45-44z m-176-339l-88 0c-8 0-15-6-15-14 0-9 7-15 15-15l88 0c8 0 15 6 15 15 0 8-7 14-15 14z m427 0l-89 0c-8 0-14-6-14-14 0-9 6-15 14-15l89 0c8 0 14 6 14 15 0 8-6 14-14 14z m-251 280c-8 0-14-7-14-15l0-29c0-8 6-15 14-15 9 0 15 7 15 15l0 29c0 8-6 15-15 15z m103 103c0-8 7-15 15-15l30 0c8 0 14 7 14 15 0 8-6 14-14 14l-30 0c-8 0-15-6-15-14z m-205 0c0 8-7 14-15 14l-30 0c-8 0-14-6-14-14 0-8 6-15 14-15l30 0c8 0 15 7 15 15z m186 68c3 0 7 2 10 5l21 20c6 6 6 15 0 21-6 6-15 6-21 0l-21-21c-5-5-5-15 0-20 3-3 7-5 11-5z m-177-141l-21-21c-6-6-6-15 0-21 3-3 7-4 10-4 4 0 8 1 11 4l21 21c5 6 5 15 0 21-6 6-15 6-21 0z m187 0c-6 6-15 6-21 0-5-6-5-15 0-21l21-21c3-3 7-4 10-4 4 0 8 1 11 4 6 6 6 15 0 21l-21 21z m-187 146c3-3 6-5 10-5 4 0 8 2 11 5 5 5 5 15 0 20l-21 21c-6 6-15 6-21 0-6-6-6-15 0-21l21-20z" horiz-adv-x="1000" />
<glyph glyph-name="thin-cart" unicode="&#xe837;" d="m374 218c1 0 2 0 3 1 3-1 7-1 10-1l353 0c22 0 46 16 54 36l96 240c4 12 4 24-3 33-6 9-17 14-29 14l-545 0c-12 0-23-5-30-14-7-9-9-21-6-33l59-237c2-7 6-14 11-20-12-7-24-20-33-44-4-11-4-28 6-42 7-10 22-22 52-22l427 0c8 0 14 7 14 15 0 8-6 15-14 15l-427 0c-10 0-23 1-28 9-4 6-3 12-2 15 11 31 30 35 32 35z m-69 284c0 3 0 5 1 7 2 2 4 3 7 3l545 0c3 0 4-1 5-2 0-1 1-3-1-5l-95-240c-4-9-17-18-27-18l-353 0c-10 0-20 8-22 17l-60 238z m-18 82l-29 97c-14 55-55 67-73 66l-63 0c-8 0-15-6-15-15 0-8 7-14 15-14l63 0c4 0 33 0 44-45l30-97c2-7 8-11 14-11 1 0 3 0 4 1 8 2 12 10 10 18z m85-484c-40 0-73-33-73-74 0-40 33-73 73-73 41 0 74 33 74 73 0 41-33 74-74 74z m0-118c-24 0-44 20-44 44 0 25 20 45 44 45 24 0 44-20 44-45 0-24-20-44-44-44z m353 118c-40 0-73-33-73-74 0-40 33-73 73-73 41 0 74 33 74 73 0 41-33 74-74 74z m0-118c-24 0-44 20-44 44 0 25 20 45 44 45 25 0 44-20 44-45 0-24-19-44-44-44z" horiz-adv-x="1000" />
<glyph glyph-name="thin-bullhorn" unicode="&#xe838;" d="m816 467l0 251c0 8-6 14-14 14l-59 0c-5 0-9-2-12-6-158-214-251-214-341-214l-162 0c-65 0-118-53-118-118l0-29c0-65 53-118 118-118l162 0c90 0 183 0 341-215 3-3 7-6 12-6l59 0c8 0 14 7 14 15l0 251c49 6 74 43 74 87 0 45-25 82-74 88z m-441-190l-147 0c-49 0-88 39-88 88l0 29c0 49 39 88 88 88l147 0 0-205z m412-221l-37 0c-155 209-257 220-346 220 0 0 0 0 0 1l0 205 0 0c89 1 191 12 346 221l37 0 0-647z m29 266l0 115c33-5 44-29 44-58 0-28-11-52-44-57z m-412-266l-11 9c-10 7-20 24-21 36l-12 118c-1 8-8 14-16 13-8 0-14-8-13-16l12-118c2-20 16-45 32-57l12-9c10-7 17-21 17-28 0-2-5-7-14-7l-118 0c-9 0-17 8-18 16l-26 206c-1 9-9 14-17 13-8-1-13-8-12-16l25-206c3-24 24-42 48-42l118 0c24 0 44 16 44 36 0 17-13 39-30 52z m-201 357c3-3 6-4 10-4 4 0 8 1 11 4 9 10 19 11 19 11l88 0c8 0 15 6 15 14 0 8-7 15-15 15l-88 0c-2 0-22-1-40-19-6-6-6-15 0-21z" horiz-adv-x="1000" />
<glyph glyph-name="thin-anchor" unicode="&#xe839;" d="m853 236c-2 7-10 12-18 11l-132-30c-8-1-13-9-11-17 1-7 7-12 14-12 1 0 2 0 3 1l110 24c-5-28-30-104-140-133-84-21-136-55-164-78v377h147c8 0 15 7 15 15 0 8-7 15-15 15h-147v132c0 1 0 1 0 1 49 7 88 50 88 102 0 57-46 103-103 103-57 0-103-46-103-103 0-52 39-95 89-102 0 0-1 0-1-1v-132h-147c-8 0-14-7-14-15 0-8 6-15 14-15h147v-377c-28 23-80 57-164 78-111 29-135 105-140 133l110-24c1-1 2-1 3-1 7 0 13 5 14 12 2 8-3 16-11 17l-132 30c-8 1-16-4-18-11-1-5 1-9 4-13-1 0-1-1-1-1 0-1 2-34 23-71 20-33 60-78 141-99 124-32 174-93 175-94 0 0 0 0 0 0 1-1 1-1 1-1 1-1 1-1 1-1 0 0 1-1 2-1 0 0 1-1 1-1 0 0 1 0 1 0 1-1 3-1 4-1 1 0 1 0 1 0l0 0c0 0 0 0 0 0 2 0 4 0 5 1 1 0 1 0 1 0 0 0 1 1 1 1 1 0 2 0 2 1 0 0 1 0 1 1 0 0 1 0 1 1 0 0 0 0 1 0 0 1 50 62 174 94 156 40 164 169 164 170 0 0 0 1 0 1 2 4 4 8 3 13z m-426 408c0 41 32 74 73 74 41 0 74-33 74-74 0-40-33-73-74-73-41 0-73 33-73 73z" horiz-adv-x="1000" />
<glyph glyph-name="thin-globe" unicode="&#xe83a;" d="m462 181c154 0 279 125 279 279 0 153-125 278-279 278-154 0-278-125-278-278 0-154 124-279 278-279z m0 528c137 0 249-112 249-249 0-138-112-249-249-249-137 0-249 111-249 249 0 137 112 249 249 249z m355-249c0 76-24 147-68 208l4 3c6 6 6 15 1 21-5 6-14 7-21 2l-33-29c-6-5-7-15-1-21 3-3 7-5 11-5 3 0 7 1 10 4l6 6c40-56 61-121 61-189 0-179-146-325-325-325-84 0-163 32-224 90l9 7c6 6 7 15 2 21-5 6-15 7-21 2l-39-32c-6-5-7-14-2-21 3-3 8-5 12-5 3 0 6 1 9 3l7 6c63-62 145-97 234-100l0-56c0-8 6-15 15-15 43 0 73-25 89-44l-180 0c9 12 23 25 42 35 7 3 11 12 7 19-3 8-12 11-20 7-48-22-69-68-70-69-2-5-1-10 1-15 3-4 8-6 13-6l235 0c5 0 10 2 13 7 2 4 3 10 0 14-1 3-38 73-116 81l0 42c188 8 339 164 339 354z" horiz-adv-x="1000" />
<glyph glyph-name="thin-statistics" unicode="&#xe83b;" d="m824 747l-648 0c-40 0-73-33-73-73l0-648c0-40 33-73 73-73l648 0c40 0 73 33 73 73l0 648c0 40-33 73-73 73z m44-721c0-24-20-44-44-44l-648 0c-24 0-44 20-44 44l0 515 736 0 0-515z m0 545l-736 0 0 103c0 24 20 44 44 44l648 0c24 0 44-20 44-44l0-103z m-530 88l-147 0c-8 0-15-7-15-15 0-8 7-14 15-14l147 0c8 0 15 6 15 14 0 8-7 15-15 15z m471 0l-44 0c-8 0-15-7-15-15 0-8 7-14 15-14l44 0c8 0 15 6 15 14 0 8-7 15-15 15z m-603-456l59 0c4 0 7 2 10 4l18 18 48-61c4-4 9-6 15-5 5 1 9 5 11 10l58 184 61-256c1-7 7-11 13-12 0 0 1 0 1 0 6 0 11 4 14 10l46 116 15-29c3-5 8-9 14-8 5 0 11 3 13 8l75 175 45-101c2-5 8-9 13-9l59 0c8 0 15 7 15 15 0 8-7 15-15 15l-49 0-55 123c-2 5-8 9-13 9 0 0 0 0-1 0-5 0-11-4-13-9l-76-177-15 31c-3 5-8 8-14 8-5 0-11-4-13-9l-41-104-63 263c-2 7-7 11-14 12-6 0-13-4-15-11l-65-209-41 52c-3 4-7 6-11 6-4 0-8-2-11-4l-25-26-53 0c-8 0-15-6-15-14 0-8 7-15 15-15z" horiz-adv-x="1000" />
<glyph glyph-name="thin-thumb-up" unicode="&#xe83c;" d="m867 313c18 14 30 35 30 59 0 41-33 74-73 74h-89-14-69c13 57 25 167 25 206 0 73-40 88-74 88-22 0-59-10-59-74 0-88-129-273-154-309h-27c-2 6-5 12-9 16-7 9-19 14-30 14h-177c-24 0-44-20-44-44v-339c0-24 20-44 44-44h132c24 0 45 19 48 43l36 325h34c5 0 9 2 12 6 7 9 165 226 165 332 0 32 8 44 29 44 23 0 44-7 44-58 0-46-15-176-29-216-1-5 0-10 3-14 2-3 7-6 11-6h89 14 89c24 0 44-20 44-44 0-24-20-44-44-44h-30c-8 0-14-7-14-15 0-8 6-14 14-14h30c24 0 44-20 44-45 0-24-20-44-44-44h-15c-2 0-3 0-5-1-3 1-6 1-10 1h-14c-9 0-15-6-15-14 0-9 6-15 15-15h14c25 0 44-20 44-44 0-25-19-44-44-44h-14c-2 0-4-1-5-1-1 0-3 1-5 1h-13c-8 0-14-7-14-15 0-8 6-15 14-15 21 0 37-16 37-37 0-20-20-36-44-36h-118-44-51c-54 0-106 7-119 13l-29 15c-7 3-16 0-20-7-3-7 0-16 7-20l29-15c21-10 84-16 132-16h51 44 118c41 0 74 30 74 66 0 15-5 28-13 39 32 8 57 37 57 72 0 19-8 36-19 49 28 10 48 37 48 68 0 25-12 46-30 59z m-570-307c0-9-9-16-18-16h-132c-8 0-15 6-15 14v339c0 8 7 14 15 14h177c3 0 6-1 8-3 3-3 3-6 3-9l-38-339z" horiz-adv-x="1000" />
<glyph glyph-name="thin-headphones" unicode="&#xe83d;" d="m500 747c-219 0-397-191-397-426v-147c0-41 33-74 73-74v-44c0-57 43-103 96-103 53 0 96 46 96 103v235c0 57-43 103-96 103-53 0-96-46-96-103v-44c-16 0-31-6-44-15v89c0 219 165 397 368 397 203 0 368-178 368-397v-89c-13 9-28 15-44 15v44c0 57-43 103-96 103-53 0-96-46-96-103v-235c0-57 43-103 96-103 53 0 96 46 96 103v44c40 0 73 33 73 74v147c0 235-178 426-397 426z m-294-456c0 41 30 74 66 74 37 0 66-33 66-74v-235c0-41-29-74-66-74-36 0-66 33-66 74v235z m-30-73v-89c-24 0-44 20-44 45 0 24 20 44 44 44z m618-162c0-41-29-74-66-74-36 0-66 33-66 74v235c0 41 30 74 66 74 37 0 66-33 66-74v-235z m30 73v89c24 0 44-20 44-44 0-25-20-45-44-45z" horiz-adv-x="1000" />
<glyph glyph-name="thin-bell" unicode="&#xe83e;" d="m796 623c18 16 28 38 25 60-2 21-15 40-33 49-36 19-62 8-74 0-17-12-28-32-29-53-10 2-21 3-33 3-54 0-124-20-191-98-118-138-144-253-256-271-27 0-43-8-51-22-11-24 8-57 59-100 2-2 6-3 9-3 4 0 8 2 11 5 6 6 5 16-1 21-48 40-53 60-51 64 1 2 12 8 45 5 6-1 12 3 14 9 67 22 105 78 150 147 26 38 55 81 93 126 50 58 107 87 169 87 47 0 80-17 80-17l1-1 2-1c4-1 112-50 78-227-12-61-29-112-45-157-22-64-41-116-32-171-61 52-158 106-224 138-64 31-128 57-184 74-8 3-16-2-19-9-2-8 2-16 10-19 55-17 118-42 181-72 189-92 275-178 266-197-9-18-130-4-319 88-7 4-16 1-20-6-3-8 0-16 7-20 82-40 224-97 303-97 27 0 47 6 55 22 7 15 2 32-11 51-53 106 27 191 61 370 22 116-12 185-46 222z m-21 20c-17 12-29 18-29 18 0 0-12 6-32 12 0 14 6 27 17 34 12 8 27 8 44-1 9-5 16-15 17-26 2-13-5-26-17-37z m-384-433c-6 5-15 3-20-3l-22-28c-13 6-26 10-41 10-48 0-87-39-87-87 0-48 39-87 87-87 48 0 87 39 87 87 0 23-9 43-23 59l22 28c5 6 4 16-3 21z m-83-165c-31 0-57 26-57 57 0 32 26 57 57 57 32 0 57-25 57-57 0-31-25-57-57-57z" horiz-adv-x="1000" />
<glyph glyph-name="thin-study" unicode="&#xe83f;" d="m851 282v145c9 7 10 14 10 19 0 6-2 17-20 25l-325 130c-18 7-48 7-66 0l-324-130c-18-8-21-19-21-25 0-6 3-17 21-25l122-48v-177c0-4 2-8 4-11 65-60 148-91 231-91 83 0 166 31 231 91 3 3 5 7 5 11v177l103 41v-132c-26-6-45-29-45-57 0-32 27-58 59-58 33 0 59 26 59 58 0 28-19 51-44 57z m-162-80c-117-105-295-105-412 0v159l173-69c9-4 21-6 33-6 12 0 24 2 33 6l173 69v-159z m-184 117c-11-5-33-5-44 0l-318 127 318 127c11 5 33 5 44 0l317-126c0-1 0-1 0-1v-1l-317-126z m331-123c-16 0-29 13-29 29 0 17 13 30 29 30 16 0 30-13 30-30 0-16-14-29-30-29z" horiz-adv-x="1000" />
<glyph glyph-name="thin-cart-add" unicode="&#xe840;" d="m374 218c1 0 2 0 3 1 3-1 7-1 10-1l353 0c22 0 46 16 54 36l96 240c4 12 4 24-3 33-6 9-17 14-29 14l-118 0c-8 0-15-6-15-14 0-9 7-15 15-15l118 0c3 0 4-1 5-2 0-1 1-3-1-5l-95-240c-4-9-17-18-27-18l-353 0c-10 0-20 8-22 17l-60 238c0 3 0 5 1 7 2 2 4 3 7 3l133 0c8 0 14 6 14 15 0 8-6 14-14 14l-133 0c-12 0-23-5-30-14-7-9-9-21-6-33l59-237c2-7 6-14 11-20-12-7-24-20-33-44-4-11-4-28 6-42 7-10 22-22 52-22l427 0c8 0 14 7 14 15 0 8-6 15-14 15l-427 0c-10 0-23 1-28 9-4 6-3 12-2 15 11 31 30 35 32 35z m-87 366l-29 97c-14 55-55 67-73 66l-63 0c-8 0-15-6-15-15 0-8 7-14 15-14l63 0c4 0 33 0 44-45l30-97c2-7 8-11 14-11 1 0 3 0 4 1 8 2 12 10 10 18z m85-484c-40 0-73-33-73-74 0-40 33-73 73-73 41 0 74 33 74 73 0 41-33 74-74 74z m0-118c-24 0-44 20-44 44 0 25 20 45 44 45 24 0 44-20 44-45 0-24-20-44-44-44z m353 118c-40 0-73-33-73-74 0-40 33-73 73-73 41 0 74 33 74 73 0 41-33 74-74 74z m0-118c-24 0-44 20-44 44 0 25 20 45 44 45 25 0 44-20 44-45 0-24-19-44-44-44z m-142 371c3-2 6-3 10-3 3 0 6 1 9 3l88 74c7 5 8 14 2 21-5 6-14 7-20 2l-64-54 0 263c0 8-7 15-15 15-8 0-15-7-15-15l0-263-64 54c-6 5-16 4-21-2-5-7-4-16 2-21l88-74z" horiz-adv-x="1000" />
<glyph glyph-name="thin-cart-delete" unicode="&#xe841;" d="m374 218c1 0 2 0 3 1 3-1 7-1 10-1l353 0c22 0 46 16 54 36l96 240c4 12 4 24-3 33-6 9-17 14-29 14l-133 0c-8 0-15-6-15-14 0-9 7-15 15-15l133 0c3 0 4-1 5-2 0-1 1-3-1-5l-95-240c-4-9-17-18-27-18l-353 0c-10 0-20 8-22 17l-60 238c0 3 0 5 1 7 2 2 4 3 7 3l133 0c8 0 14 6 14 15 0 8-6 14-14 14l-133 0c-12 0-23-5-30-14-7-9-9-21-6-33l59-237c2-7 6-14 11-20-12-7-24-20-33-44-4-11-4-28 6-42 7-10 22-22 52-22l427 0c8 0 14 7 14 15 0 8-6 15-14 15l-427 0c-10 0-23 1-28 9-4 6-3 12-2 15 11 31 30 35 32 35z m-87 366l-29 97c-14 55-55 67-73 66l-63 0c-8 0-15-6-15-15 0-8 7-14 15-14l63 0c4 0 33 0 44-45l30-97c2-7 8-11 14-11 1 0 3 0 4 1 8 2 12 10 10 18z m85-484c-40 0-73-33-73-74 0-40 33-73 73-73 41 0 74 33 74 73 0 41-33 74-74 74z m0-118c-24 0-44 20-44 44 0 25 20 45 44 45 24 0 44-20 44-45 0-24-20-44-44-44z m353 118c-40 0-73-33-73-74 0-40 33-73 73-73 41 0 74 33 74 73 0 41-33 74-74 74z m0-118c-24 0-44 20-44 44 0 25 20 45 44 45 25 0 44-20 44-45 0-24-19-44-44-44z m-231 446c3-3 7-4 11-4 3 0 7 1 10 4l70 70 71-70c3-3 7-4 10-4 4 0 8 1 11 4 5 6 5 15 0 21l-71 70 71 71c5 5 5 15 0 20-6 6-15 6-21 0l-71-70-70 70c-6 6-15 6-21 0-6-5-6-15 0-20l71-71-71-70c-6-6-6-15 0-21z" horiz-adv-x="1000" />
<glyph glyph-name="thin-satelite" unicode="&#xe842;" d="m897 541c0 114-92 206-206 206-76 0-142-41-178-103-2 0-4-1-6-2l-397-250c-7-4-9-14-5-20 3-5 8-7 13-7 2 0 5 0 7 2l369 232c-6-18-9-38-9-58 0-27 6-54 16-78l-394-382c-5-6-6-15 0-21 3-3 7-4 11-4 3 0 7 1 10 4l387 376c15-26 35-48 60-64l-189-233c-5-7-4-16 2-21 3-2 6-3 9-3 4 0 9 2 12 5l191 235c0 1 0 1 0 2 28-14 59-22 91-22 15 0 29 2 43 5l-203-365c-4-7-1-16 6-20 2-2 5-2 7-2 5 0 10 3 13 7l218 394c72 32 122 104 122 187z m-206-176c-66 0-125 37-155 92l107 103c6 6 6 15 0 21-6 6-15 6-21 0l-98-95c-6 17-9 36-9 55 0 98 79 177 176 177 98 0 177-79 177-177 0-97-79-176-177-176z" horiz-adv-x="1000" />
<glyph glyph-name="thin-home" unicode="&#xe843;" d="m893 337l-362 390c-16 18-45 18-62 0l-362-390c-6-6-5-15 1-21 6-5 15-5 20 1l63 68v-381c0-25 20-45 44-45h530c24 0 44 20 44 45v381l63-68c3-3 7-5 10-5 4 0 8 2 11 4 5 6 6 15 0 21z m-290-348h-206v279c0 49 40 89 88 89h30c48 0 88-40 88-89v-279z m177 426v-411c0-9-7-15-15-15h-133v279c0 65-52 118-117 118h-30c-65 0-117-53-117-118v-279h-133c-8 0-14 6-14 15v411h-1l271 292c5 6 13 6 18 0l271-292h0z" horiz-adv-x="1000" />
<glyph glyph-name="thin-time" unicode="&#xe844;" d="m500 747c-219 0-397-178-397-397 0-219 178-397 397-397 219 0 397 178 397 397 0 219-178 397-397 397z m0-765c-203 0-368 165-368 368 0 203 165 368 368 368 203 0 368-165 368-368 0-203-165-368-368-368z m15 440l0 237c0 8-7 15-15 15-8 0-15-7-15-15l0-237c-28-6-51-28-57-57l-134 0c-8 0-15-7-15-15 0-8 7-15 15-15l134 0c7-33 37-58 72-58 41 0 74 32 74 73 0 36-26 65-59 72z m-15-116c-24 0-44 20-44 44 0 24 20 44 44 44 24 0 44-20 44-44 0-24-20-44-44-44z" horiz-adv-x="1000" />
<glyph glyph-name="thin-book" unicode="&#xe845;" d="m837 687c-6 34-36 60-72 60h-206c-24 0-46-12-59-30-13 18-35 30-59 30h-206c-36 0-66-26-72-60-34-6-60-36-60-72v-530c0-40 33-73 73-73h251c24 0 44-24 44-44 0-9 6-15 14-15h30c8 0 14 6 14 15 0 20 20 44 45 44h250c40 0 73 33 73 73v530c0 36-26 66-60 72z m-278 31h206c24 0 44-20 44-44v-530c0-24-20-44-44-44h-206c-16 0-32-6-44-16v590c0 24 20 44 44 44z m-368-44c0 24 20 44 44 44h206c25 0 44-20 44-44v-590c-12 10-28 16-44 16h-206c-24 0-44 20-44 44v530z m294-663c-13 18-35 30-58 30h-251c-24 0-44 20-44 44v530c0 19 13 35 30 41v-512c0-40 33-73 73-73h206c25 0 44-24 44-45v-15z m383 74c0-24-20-44-44-44h-250c-24 0-46-12-59-30v15c0 21 19 45 44 45h206c40 0 73 33 73 73v512c17-6 30-22 30-41v-530z" horiz-adv-x="1000" />
<glyph glyph-name="thin-bookmark" unicode="&#xe846;" d="m824 747l-603 0c-41 0-74-33-74-73l0-74 29 0 0 74c0 24 20 44 45 44l117 0 0-736-117 0c-25 0-45 20-45 44l0 89 30 0c8 0 15 6 15 14 0 9-7 15-15 15l-88 0c-9 0-15-6-15-15 0-8 6-14 15-14l29 0 0-89c0-40 33-73 74-73l603 0c40 0 73 33 73 73l0 648c0 40-33 73-73 73z m-221-29l147 0 0-234-64 54c-5 4-13 4-19 0l-64-54 0 234z m265-692c0-24-20-44-44-44l-456 0 0 736 206 0 0-265c0-6 3-11 8-13 5-3 11-2 16 2l79 65 78-65c3-3 6-4 10-4 2 0 4 1 6 2 5 2 9 7 9 13l0 265 44 0c24 0 44-20 44-44l0-648z m-750 515l29 0 0-367 29 0 0 367 30 0c8 0 15 7 15 15 0 8-7 15-15 15l-88 0c-9 0-15-7-15-15 0-8 6-15 15-15z" horiz-adv-x="1000" />
<glyph glyph-name="thin-key" unicode="&#xe847;" d="m632 747c-146 0-265-119-265-265 0-35 7-71 19-100l-279-279c-3-3-4-6-4-10l0-125c0-9 6-15 15-15l125 0c4 0 8 2 11 5l51 55c2 3 4 6 4 9l2 31 30 3c3 0 6 1 9 3l42 37c3 2 5 6 5 11l0 22 27 0c4 0 7 2 10 5l38 40 21 0c4 0 8 1 11 4l50 51c26-8 52-12 78-12 146 0 265 119 265 265 0 146-119 265-265 265z m-145-544l-22 0c-4 0-8-2-10-5l-38-39-35 0c-8 0-14-7-14-15l0-31-34-28-38-4c-8 0-13-6-14-13l-2-39-44-47-68 0 294 295c19-15 40-27 62-37l-37-37z m145 44c-57 0-119 23-162 62-6 5-16 5-21-1-2-2-3-4-3-6 0 0 0 0 0 0l-309-309c-3-3-5-7-5-11l0 105 274 274 8 8c5 4 6 11 3 17-13 25-20 62-20 96 0 130 105 236 235 236 130 0 236-106 236-236 0-130-106-235-236-235z m77 389c-43 0-78-35-78-77 0-43 35-78 78-78 42 0 77 35 77 78 0 42-35 77-77 77z m0-125c-27 0-48 21-48 48 0 26 21 48 48 48 26 0 48-22 48-48 0-27-22-48-48-48z" horiz-adv-x="1000" />
<glyph glyph-name="thin-timer" unicode="&#xe848;" d="m515 349l0 163c0 8-7 15-15 15-8 0-15-7-15-15l0-163c-33-7-58-37-58-72 0-41 32-74 73-74 41 0 74 33 74 74 0 35-26 65-59 72z m-15-116c-24 0-44 20-44 44 0 24 20 44 44 44 24 0 44-20 44-44 0-24-20-44-44-44z m259 238c0 1 1 1 2 1l38 38c17 18 17 46 0 63l-18 17c-17 17-45 17-62 0l-38-38c-2-1-3-3-3-5-51 34-112 53-178 53-178 0-324-145-324-323 0-179 146-324 324-324 178 0 324 145 324 324 0 73-25 140-65 194z m-57 60l38 38c5 6 15 6 21 0l17-17c5-6 5-15 0-21l-38-37c-12 13-25 25-39 37 0 0 0 0 1 0z m-202-548c-162 0-294 132-294 294 0 162 132 294 294 294 162 0 294-132 294-294 0-162-132-294-294-294z m-59 647l118 0 0 0c24 0 44 20 44 44l0 15c0 23-18 46-41 51-41 9-83 9-125 0-22-5-40-28-40-51l0-15c0-24 20-44 44-44z m-14 59c0 9 8 21 17 23 18 3 37 5 56 5 19 0 38-2 56-5 9-2 18-14 18-23l0-15c0-8-7-14-15-15l-117 0c-9 0-15 7-15 15l0 15z m-148-397l-29 0c-8 0-15-7-15-15 0-8 7-15 15-15l29 0c9 0 15 7 15 15 0 8-6 15-15 15z m471 0l-29 0c-8 0-15-7-15-15 0-8 7-15 15-15l29 0c8 0 15 7 15 15 0 8-7 15-15 15z m-250-221c-8 0-15-7-15-15l0-29c0-8 7-15 15-15 8 0 15 7 15 15l0 29c0 8-7 15-15 15z" horiz-adv-x="1000" />
<glyph glyph-name="thin-saturn" unicode="&#xe849;" d="m238 400c8-2 16 3 18 11 27 110 126 187 240 187 137 0 248-111 248-248 0-43-11-85-32-122-4-7-1-16 6-20 2-1 5-2 7-2 5 0 10 3 13 7 23 42 36 89 36 137 0 153-125 278-278 278-127 0-238-86-269-210-2-8 3-16 11-18z m385-264c-39-22-82-34-127-34-111 0-209 74-239 181-2 8-10 13-18 10-8-2-12-10-10-18 33-119 143-203 267-203 50 0 99 14 142 39 7 4 9 13 5 20-4 7-13 10-20 5z m-292 321c-5-7-3-16 4-20 3-2 5-3 8-3 5 0 10 3 12 7 32 49 85 78 142 78 9 0 15 6 15 14 0 9-6 15-15 15-67 0-130-34-166-91z m501-91c-6 6-15 6-21 1-6-6-6-15 0-21 45-47 63-89 51-118-13-33-63-50-138-48-80 2-179 25-278 66-99 40-185 93-244 148-54 52-77 99-64 132 13 31 61 48 134 47 8 0 15 7 15 15 0 8-7 15-15 15-86 1-143-22-161-66-19-45 7-103 71-164 61-58 151-113 253-155 102-42 204-66 288-68 4 0 7 0 11 0 83 0 138 24 155 66 18 42-2 94-57 150z" horiz-adv-x="1000" />
<glyph glyph-name="thin-notes" unicode="&#xe84a;" d="m824 747l-133 0-515 0c-40 0-73-33-73-73l0-648c0-40 33-73 73-73l30 0 485 0 133 0c40 0 73 33 73 73l0 648c0 40-33 73-73 73z m-89-721c0-24-19-44-44-44l-485 0-30 0c-24 0-44 20-44 44l0 648c0 24 20 44 44 44l515 0c25 0 44-20 44-44l0-648z m133 0c0-24-20-44-44-44l-74 0c9 13 15 28 15 44l0 648c0 16-6 31-15 44l74 0c6 0 13-2 19-5l-44-44c-6-5-6-15 0-20 2-3 6-5 10-5 4 0 7 2 10 5l44 44c3-6 5-13 5-19l0-648z m-603 574c16 0 29-13 29-29 0-5-1-9-3-14-4-7-1-16 6-19 8-4 17-1 20 6 4 8 7 17 7 27 0 32-27 59-59 59-33 0-59-27-59-59 0-10 2-19 6-27 3-5 8-8 14-8 2 0 4 0 6 1 7 4 10 13 7 20-3 4-4 9-4 14 0 16 13 29 30 29z m338 30c-32 0-59-27-59-59 0-10 2-19 7-27 2-5 7-8 13-8 2 0 4 0 7 1 7 4 10 13 6 20-2 4-3 9-3 14 0 16 13 29 29 29 16 0 29-13 29-29 0-5-1-9-3-14-3-7 0-16 7-19 7-4 16-1 20 6 4 8 6 17 6 27 0 32-27 59-59 59z m0-59c-8 0-15-7-15-15l0-81c0-77-69-140-154-140-85 0-155 63-155 140l0 81c0 8-6 15-14 15-8 0-15-7-15-15l0-81c0-93 82-169 184-169 101 0 184 76 184 169l0 81c0 8-7 15-15 15z" horiz-adv-x="1000" />
<glyph glyph-name="thin-ambulance" unicode="&#xe84b;" d="m859 302l-83 131c-22 29-63 49-99 49l-89 0 0 45c0 40-33 73-73 73l-1 0c-7 82-77 147-161 147-84 0-154-65-161-147l-16 0c-40 0-73-33-73-73l0-339 0-8c0-23 0-43 12-56 6-6 15-9 25-9 1 0 3-1 4-1 4-4 3-17 3-23 0-2 0-4 0-6 0-23 12-34 22-38 10-5 22-6 35-6 4-49 46-88 96-88 51 0 92 39 97 88l191 0 28 0c5-49 46-88 97-88 50 0 92 39 96 88l15 0c40 0 73 33 73 74l0 73c0 36-17 86-38 114z m-506 416c73 0 132-60 132-133 0-73-59-132-132-132-73 0-132 59-132 132 0 73 59 133 132 133z m-53-736c-37 0-67 31-67 68 0 37 30 67 67 67 38 0 68-30 68-67 0-37-30-68-68-68z m259 89l-30 0-134 0c-10 43-48 75-95 75-46 0-84-32-94-75-9 0-19 0-25 3-2 0-5 2-5 11l1 5c0 13 1 32-12 44-4 5-12 10-25 10-2 0-4 0-4 1-4 4-4 22-4 35l0 347c0 24 20 44 44 44l16 0c7-83 77-147 161-147 84 0 154 64 161 147l1 0c24 0 44-20 44-44l0-456z m118 382c27 0 59-16 75-37l83-131c5-7 9-14 14-23l-128 0c-25 0-44 20-44 44l0 147z m36-471c-37 0-68 31-68 68 0 37 31 67 68 67 37 0 67-30 67-67 0-37-30-68-67-68z m155 133c0-25-20-44-44-44l-17 0c-10 43-48 75-94 75-46 0-85-32-95-75l-30 0 0 382 59 0 0-147c0-41 33-74 74-74l139 0c5-15 8-31 8-44l0-73z m-559 412c4 0 7 1 10 4l44 44c3 3 5 6 5 10l0 103c0 8-7 15-15 15-8 0-15-7-15-15l0-97-40-39c-5-6-5-15 0-21 3-3 7-4 11-4z" horiz-adv-x="1000" />
<glyph glyph-name="thin-briefcase" unicode="&#xe84c;" d="m824 637l-162 0-22 0c-5 0-16 7-20 18l-21 49c-9 20-33 36-55 36l-103 0c-22 0-46-16-54-36l-21-49c-5-11-15-18-20-18l-22 0-148 0c-40 0-73-33-73-74l0-470c0-41 33-74 73-74l648 0c40 0 73 33 73 74l0 470c0 41-33 74-73 74z m-431 6l21 49c4 10 17 18 27 18l103 0c11 0 24-8 28-18l21-49c1-2 2-4 3-6l-207 0c2 2 3 4 4 6z m475-550c0-25-20-44-44-44l-648 0c-24 0-44 19-44 44l0 338 736 0 0-338z m0 367l-736 0 0 103c0 25 20 44 44 44l148 0 22 0 294 0 22 0 162 0c24 0 44-19 44-44l0-103z m-559-470l-88 0c-9 0-15-7-15-15 0-8 6-15 15-15l88 0c8 0 15 7 15 15 0 8-7 15-15 15z m471 0l-89 0c-8 0-14-7-14-15 0-8 6-15 14-15l89 0c8 0 14 7 14 15 0 8-6 15-14 15z m-471 88c8 0 15 7 15 15l0 294c0 8-7 15-15 15-8 0-15-7-15-15l0-294c0-8 7-15 15-15z m382 0c8 0 15 7 15 15l0 294c0 8-7 15-15 15-8 0-14-7-14-15l0-294c0-8 6-15 14-15z" horiz-adv-x="1000" />
<glyph glyph-name="thin-layers" unicode="&#xe84d;" d="m128 542l339-136c9-3 21-5 33-5 12 0 24 2 33 5l339 136c18 7 21 18 21 25 0 6-3 17-21 24l-339 136c-18 7-48 7-66 0l-339-136c-18-7-21-18-21-24 0-7 3-18 21-25z m350 158c11 4 33 4 44 0l333-133-333-133c-11-5-33-5-44 0l-333 133 333 133z m-367-298l356-143c9-3 21-5 33-5 12 0 24 2 33 5l356 143c8 3 11 11 8 19-3 8-11 11-19 8l-356-142c-11-5-32-5-44 0l-356 142c-7 3-16 0-19-8-3-8 1-16 8-19z m767-116l-356-142c-12-5-32-5-44 0l-356 142c-7 3-16-1-19-8-3-8 1-16 8-19l356-143c9-3 21-5 33-5 12 0 24 2 33 5l356 143c8 3 11 11 8 19-3 7-11 11-19 8z m0-143l-356-142c-12-5-32-5-44 0l-356 142c-7 3-16-1-19-8-3-8 1-16 8-19l356-143c9-4 21-5 33-5 12 0 24 1 33 5l356 143c8 3 11 11 8 19-3 7-11 11-19 8z" horiz-adv-x="1000" />
<glyph glyph-name="thin-delivery" unicode="&#xe84e;" d="m880 167l-374-68c-16 30-47 51-84 51-2 0-3 0-5-1l-124 534c-4 20-16 36-32 46-17 10-37 12-56 7l-91-25c-7-2-11-8-11-14 0-2 0-5 0-8l17-52c2-6 8-10 14-10 1 0 2 0 3 1l83 18c8 2 13 10 11 18-2 7-10 12-18 11l-69-16-9 27 78 22c11 3 23 1 32-5 10-6 17-15 20-26l123-534c-35-13-60-48-60-87 0-52 42-95 94-95 52 0 94 43 94 95 0 5 0 10-1 15l370 67c8 2 14 9 12 17-1 8-9 14-17 12z m-458-176c-35 0-64 29-64 65 0 35 29 64 64 64 36 0 65-29 65-64 0-36-29-65-65-65z m54 205c4-20 22-35 44-35 2 0 5 0 8 1l283 52c12 2 22 9 28 19 7 9 9 21 7 33l-57 269c-4 24-28 40-52 35l-283-52c-12-2-22-9-28-19-7-10-9-21-7-33l57-270z m168 327l10-51-68-12-12 50 70 13z m-194-40c2 3 6 5 9 6l86 16 16-66c2-6 8-11 14-11 1 0 2 0 3 0l96 18c4 1 7 3 10 7 2 3 3 7 2 11l-13 64 70 13c1 1 2 1 2 1 8 0 14-6 16-13l56-269c1-4 0-8-2-11-2-3-6-5-9-6l-284-53c-8-1-16 5-18 12l-56 270c-1 4 0 8 2 11z" horiz-adv-x="1000" />
<glyph glyph-name="thin-tint" unicode="&#xe84f;" d="m758 360c-85 196-246 378-248 379-3 4-7 6-11 5-4 0-8-2-11-5-2-1-160-183-245-378-19-39-28-80-28-122 0-156 128-283 285-283 157 0 285 127 285 283 0 43-9 84-27 121z m-258-375c-141 0-256 114-256 254 0 38 9 75 25 110 71 161 193 314 230 358 38-44 162-197 232-359 17-34 25-70 25-109 0-140-115-254-256-254z m-160 244c0 26 6 50 16 72 4 7 1 16-6 19-8 4-16 1-20-6-13-27-19-55-19-85 0-52 21-101 59-138 3-3 6-4 10-4 4 0 8 2 11 5 5 6 5 15-1 20-32 31-50 73-50 117z" horiz-adv-x="1000" />
<glyph glyph-name="thin-trash" unicode="&#xe850;" d="m794 659l-191 0 0 22c0 36-33 66-74 66l-58 0c-41 0-74-30-74-66l0-22-191 0c-41 0-74-33-74-74l0-44c0-8 7-14 15-14l30 0c0-1-1-1 0-2l52-500c4-40 40-72 80-72l382 0c40 0 76 32 80 72l53 500c0 1-1 1-1 2l30 0c8 0 15 6 15 14l0 44c0 41-33 74-74 74z m-367 22c0 20 19 37 44 37l58 0c25 0 45-17 45-37l0-22-147 0 0 22z m315-653c-3-25-26-46-51-46l-382 0c-25 0-48 21-51 46l-52 499 588 0-52-499z m96 528l-676 0 0 29c0 25 20 45 44 45l588 0c25 0 44-20 44-45l0-29z m-470-500c8 0 14 6 14 15l0 367c0 8-6 15-14 15-8 0-15-7-15-15l0-367c0-9 7-15 15-15z m132 0c8 0 15 6 15 15l0 367c0 8-7 15-15 15-8 0-15-7-15-15l0-367c0-9 7-15 15-15z m132 0c9 0 15 6 15 15l0 367c0 8-6 15-15 15-8 0-14-7-14-15l0-367c0-9 6-15 14-15z" horiz-adv-x="1000" />
<glyph glyph-name="thin-lightbulb" unicode="&#xe851;" d="m500 747c-146 0-265-119-265-265 0-70 28-137 78-187l2-1c0-1 53-41 53-135l0-30 264 0 0 30c0 93 51 133 53 134l2 2c50 50 78 117 78 187 0 146-119 265-265 265z m167-431c-9-6-64-54-64-157l-88 0 0 229 69 69c6 6 6 15 0 21-6 6-15 6-21 0l-63-63-63 63c-6 6-15 6-21 0-6-6-6-15 0-21l69-69 0-229-88 0c0 103-55 151-64 157-44 45-68 104-68 166 0 130 105 236 235 236 130 0 235-106 235-236 0-62-24-121-68-166z m-49-216l-236 0c-8 0-14-7-14-15 0-8 6-14 14-14l236 0c8 0 14 6 14 14 0 8-6 15-14 15z m-15-59l-206 0c-8 0-15-6-15-15 0-8 7-14 15-14l31 0c7-34 37-59 72-59 36 0 65 25 72 59l31 0c8 0 15 6 15 14 0 9-7 15-15 15z m-103-59c-19 0-35 13-41 30l82 0c-6-17-22-30-41-30z" horiz-adv-x="1000" />
<glyph glyph-name="thin-calendar" unicode="&#xe852;" d="m824 674l-103 0 0 29c0 24-20 44-44 44l-15 0c-24 0-44-20-44-44l0-29-236 0 0 29c0 24-19 44-44 44l-14 0c-25 0-45-20-45-44l0-29-103 0c-40 0-73-33-73-74l0-574c0-40 33-73 73-73l648 0c40 0 73 33 73 73l0 574c0 41-33 74-73 74z m44-648c0-24-20-44-44-44l-648 0c-24 0-44 20-44 44l0 427 736 0 0-427z m0 456l-736 0 0 118c0 24 20 44 44 44l103 0 0-29c0-25 20-44 45-44l44 0c8 0 14 6 14 14 0 9-6 15-14 15l-44 0c-9 0-15 7-15 15l0 88c0 8 6 15 15 15l14 0c8 0 15-7 15-15l0-29c-8 0-15-7-15-15 0-8 7-15 15-15l265 0 0-29c0-25 20-44 44-44l44 0c8 0 15 6 15 14 0 9-7 15-15 15l-44 0c-8 0-15 7-15 15l0 88c0 8 7 15 15 15l15 0c8 0 14-7 14-15l0-29c-8 0-14-7-14-15 0-8 6-15 14-15l133 0c24 0 44-20 44-44l0-118z m-521-203l35 27 0-206c0-8 7-15 15-15 8 0 15 7 15 15l0 235-24 12-59-44c-6-5-7-14-3-21 5-6 15-7 21-3z m238-192c44 0 80 36 80 80 0 43-36 79-79 79l-27 1 0 59 88 0c8 0 15 7 15 15 0 8-7 14-15 14l-118 0 0-117 56-1c28 0 50-23 50-50 0-28-22-50-50-50-19 0-37 11-45 29-3 7-12 10-20 7-7-3-10-12-7-19 13-29 41-47 72-47z" horiz-adv-x="1000" />
<glyph glyph-name="thin-chart" unicode="&#xe853;" d="m294 388c0 8-6 15-15 15l-76 0 68 68 3 4c7 10 11 22 11 35 0 34-28 62-62 62-34 0-61-28-61-62 0-8 6-15 14-15 9 0 15 7 15 15 0 18 15 32 32 32 18 0 32-14 32-32 0-7-2-13-5-18l-88-88 0-30 117 0c9 0 15 6 15 14z m156 283l35 26 0-147c0-8 7-15 15-15 8 0 15 7 15 15l0 177-24 11-59-44c-6-5-7-14-3-20 5-7 15-8 21-3z m403-459l-191 0c-5 0-10-1-15-3l0 223c0 25-20 45-44 45l-206 0c-24 0-44-20-44-45l0-120c-5 2-10 3-15 3l-191 0c-24 0-44-20-44-44l0-295c0-8 6-14 15-14l764 0c9 0 15 6 15 14l0 192c0 24-20 44-44 44z m-471-133l0 192 0 161c0 9 7 15 15 15l206 0c8 0 15-6 15-15l0-264 0-103-236 0 0 14z m-250 192c0 8 7 14 15 14l191 0c8 0 15-6 15-14l0-192 0-14-221 0 0 206z m736-280l-736 0 0 44 736 0 0-44z m0 74l-221 0 0 103c0 8 7 14 15 14l191 0c8 0 15-6 15-14l0-103z m-148 346c8-3 16 1 19 9 0 1 6 18 27 17 23-2 27-13 26-19 0-16-19-25-50-26l0-30c25 0 43-5 51-14 5-5 7-12 7-22-1-17-12-26-34-26-1 0-25 1-26 14-1 8-8 14-16 14-8-1-14-8-14-16 2-24 24-41 55-41 1 0 1 0 2 0 37 0 61 20 62 54 1 17-4 32-15 43-3 4-8 8-13 11 19 14 21 33 21 38 0 21-13 46-54 49-35 3-53-23-57-37-3-8 1-16 9-18z" horiz-adv-x="1000" />
<glyph glyph-name="thin-documents" unicode="&#xe854;" d="m824 747l-530 0c-40 0-73-33-73-73l0-44 0-118 0-59-45 0c-40 0-73-33-73-74l0-353c0-40 33-73 73-73l530 0c41 0 74 33 74 73l0 221 44 0c40 0 73 33 73 74l0 191 0 118 0 44c0 40-33 73-73 73z m-74-721c0-24-20-44-44-44l-530 0c-24 0-44 20-44 44l0 353c0 25 20 45 44 45l530 0c24 0 44-20 44-45l0-353z m118 295c0-25-20-44-44-44l-44 0 0 102c0 41-33 74-74 74l-456 0 0 59 618 0 0-191z m0 220l-618 0 0 59 618 0 0-59z m0 89l-618 0 0 44c0 24 20 44 44 44l530 0c24 0 44-20 44-44l0-44z m-515-545l-118 0c-8 0-14-6-14-14 0-9 6-15 14-15l118 0c8 0 15 6 15 15 0 8-7 14-15 14z m250 0l-176 0c-9 0-15-6-15-14 0-9 6-15 15-15l176 0c8 0 15 6 15 15 0 8-7 14-15 14z m74 280l-148 0c-8 0-14-7-14-15l0-88c0-8 6-15 14-15l148 0c8 0 14 7 14 15l0 88c0 8-6 15-14 15z m-15-88l-118 0 0 58 118 0 0-58z" horiz-adv-x="1000" />
<glyph glyph-name="thin-checklist" unicode="&#xe855;" d="m750 644l-103 0c-1 0-1 0-2 0-5 17-19 30-35 30-5 0-15 7-19 18l-8 19c-8 20-31 36-54 36l-44 0c-22 0-45-16-54-36l-7-19c-4-11-15-18-20-18-16 0-29-13-34-30-1 0-2 0-2 0l-118 0c-41 0-74-33-74-73l0-545c0-40 33-73 74-73l500 0c41 0 74 33 74 73l0 545c0 40-33 73-74 73z m-353-14c0 8 5 14 7 14 19 0 39 16 47 37l8 19c3 9 16 18 26 18l44 0c11 0 23-9 27-18l8-19c1-3 2-5 3-7l-23 0c-8 0-15-7-15-15 0-8 7-15 15-15l59 0c1 0 2 1 3 1 1-1 3-1 4-1 3 0 8-6 8-14l0-15c0-8-7-15-15-15l-191 0c-8 0-15 7-15 15l0 15z m397-604c0-24-20-44-44-44l-500 0c-24 0-44 20-44 44l0 545c0 24 20 44 44 44l118 0c0-25 19-44 44-44l191 0c24 0 44 19 44 44l103 0c24 0 44-20 44-44l0-545z m-323 353c-9 0-15-6-15-14l0-30-118 0 0 118 89 0c8 0 14 7 14 15 0 8-6 14-14 14l-103 0c-9 0-15-6-15-14l0-147c0-9 6-15 15-15l147 0c8 0 14 6 14 15l0 44c0 8-6 14-14 14z m33 113l-86-99-40 41c-6 5-15 5-21-1-5-6-5-16 0-22l52-53c3-3 6-8 10-8 0 0 0 0 1 15 4 0 8-2 10 1l96 107c5 6 5 15-2 21-6 5-15 4-20-2z m173-98l-89 0c-8 0-14-6-14-15 0-8 6-14 14-14l89 0c8 0 14 6 14 14 0 9-6 15-14 15z m-206-162l-147 0c-9 0-15-6-15-14l0-147c0-9 6-15 15-15l147 0c8 0 14 6 14 15l0 147c0 8-6 14-14 14z m-15-147l-118 0 0 118 118 0 0-118z m221 74l-89 0c-8 0-14-7-14-15 0-8 6-15 14-15l89 0c8 0 14 7 14 15 0 8-6 15-14 15z" horiz-adv-x="1000" />
<glyph glyph-name="thin-camera-web" unicode="&#xe856;" d="m500 71c187 0 338 151 338 338 0 186-151 338-338 338-187 0-338-152-338-338 0-187 151-338 338-338z m0 647c170 0 309-139 309-309 0-170-139-309-309-309-170 0-309 139-309 309 0 170 139 309 309 309z m0-500c105 0 191 85 191 191 0 105-86 191-191 191-105 0-191-86-191-191 0-106 86-191 191-191z m0 353c89 0 162-73 162-162 0-89-73-162-162-162-89 0-162 73-162 162 0 89 73 162 162 162z m0-280c65 0 118 53 118 118 0 65-53 118-118 118-14 0-27-3-40-7l10-28c10 3 20 5 30 5 49 0 88-39 88-88 0-49-39-88-88-88-49 0-88 39-88 88 0 12 2 23 7 34l-27 12c-7-15-10-30-10-46 0-65 53-118 118-118z m177-265c-51 0-60 18-60 18-1 8-9 13-17 12-8-2-13-10-11-18 1-4 11-41 88-41 22 0 33-7 38-15l-424 0c7 8 17 15 33 15 76 0 86 37 87 41 2 8-2 16-10 18-8 2-16-3-18-11 0 0-8-19-59-19-55 0-73-52-73-54-2-4-1-9 2-13 3-4 7-6 12-6l470 0c9 0 15 6 15 15 0 20-15 58-73 58z" horiz-adv-x="1000" />
<glyph glyph-name="thin-camera" unicode="&#xe857;" d="m824 585l-125 0-40 53c-18 24-37 50-85 50l-206 0c-48 0-67-25-86-50l-39-53-67 0c-40 0-73-33-73-73l0-427c0-40 33-73 73-73l648 0c40 0 73 33 73 73l0 427c0 40-33 73-73 73z m44-500c0-24-20-44-44-44l-648 0c-24 0-44 20-44 44l0 427c0 24 20 44 44 44l81 0 49 65c17 23 29 38 62 38l206 0c33 0 45-16 61-38l49-65 140 0c24 0 44-20 44-44l0-427z m-397 442c-122 0-221-99-221-221 0-122 99-221 221-221 121 0 220 99 220 221 0 122-99 221-220 221z m0-412c-106 0-192 85-192 191 0 105 86 191 192 191 105 0 191-86 191-191 0-106-86-191-191-191z m0 338c-81 0-147-66-147-147 0-17 2-33 8-49 2-6 8-10 14-10 1 0 3 1 5 1 7 3 11 11 9 19-5 12-7 26-7 39 0 65 53 118 118 118 8 0 14 6 14 14 0 8-6 15-14 15z m338 44l-74 0c-8 0-14-6-14-15 0-8 6-14 14-14l74 0c8 0 15 6 15 14 0 9-7 15-15 15z" horiz-adv-x="1000" />
<glyph glyph-name="thin-lock" unicode="&#xe858;" d="m500 321c-41 0-73-33-73-74 0-23 11-45 29-58l0-74c0-25 20-44 44-44 24 0 44 19 44 44l0 74c19 13 30 35 30 58 0 41-33 74-74 74z m22-112l-7-4 0-90c0-8-7-15-15-15-8 0-15 7-15 15l0 90-7 4c-14 8-22 22-22 38 0 24 20 44 44 44 24 0 44-20 44-44 0-16-8-30-22-38z m243 229l-30 0 0 81c0 126-105 228-235 228-130 0-235-102-235-228l0-81-30 0c-40 0-73-33-73-73l0-339c0-40 33-73 73-73l530 0c40 0 73 33 73 73l0 339c0 40-33 73-73 73z m-471 81c0 110 92 199 206 199 114 0 206-89 206-199l0-81-412 0 0 81z m515-493c0-24-20-44-44-44l-530 0c-24 0-44 20-44 44l0 339c0 24 20 44 44 44l530 0c24 0 44-20 44-44l0-339z" horiz-adv-x="1000" />
<glyph glyph-name="thin-umbrella" unicode="&#xe859;" d="m500 321c-8 0-15-7-15-15l0-250c0-48-37-74-73-74-37 0-74 26-74 74l0 29c0 8-6 15-14 15-9 0-15-7-15-15l0-29c0-67 53-103 103-103 50 0 103 36 103 103l0 250c0 8-7 15-15 15z m382-25c0 1 0 2 0 4-8 197-162 345-367 352l0 80c0 9-7 15-15 15-8 0-15-6-15-15l0-80c-205-7-359-155-367-352 0-2 0-3 0-4 0-4 0-8 0-12 0-9 6-15 14-15 8 0 15 6 15 15 0 4 0 7 0 11 6 13 33 59 98 59 74 0 99-59 100-62 2-5 7-8 12-9 6 0 11 2 14 7 1 1 39 64 129 64 89 0 127-61 129-64 3-5 8-7 14-7 5 1 10 4 12 9 1 3 26 62 100 62 65 0 92-47 98-59 0-4 0-7 0-11 0-9 7-15 15-15 8 0 15 6 15 15-1 4-1 8-1 12z m-127 87c-64 0-99-35-115-59-22 23-66 59-140 59-74 0-118-36-139-59-17 24-52 59-116 59-42 0-72-16-92-34 32 178 194 273 347 273 153 0 315-95 347-273-20 18-50 34-92 34z" horiz-adv-x="1000" />
<glyph glyph-name="thin-user" unicode="&#xe85a;" d="m851 54c-16 51-140 120-198 145-4 2-8 2-12 0l-141-68-125 67c-4 2-9 3-13 1-50-19-197-88-212-145-10-41-15-61-15-62 0-1 0-2 0-3 0-20 10-29 18-33 13-7 28-6 43-6 3 0 6 0 10 0l588 0c5 0 9 0 13 0 5 0 9-1 13-1 11 0 45 0 45 38 0 16-1 24-14 67z m-31-75c-4 0-8 0-12 0-4 0-9 0-14 0l-588 0c-4 0-7 0-11 0-3 0-6 0-9 0 0 0 0 0 0 0-4 0-14 0-19 3-1 0-2 1-3 6 2 5 6 25 15 58 8 34 113 93 188 123l126-68c4-2 9-2 13 0l141 68c83-37 167-96 176-123 12-41 13-48 13-59 0-6 0-8-16-8z m-474 393c8-20 17-34 26-49 3-4 6-9 8-13 10-16 20-27 30-36 0-15-2-33-5-46-2-8 2-16 10-18 8-2 16 3 18 11 4 18 7 42 7 59 0 5-2 10-6 13-10 7-19 17-29 32-2 5-5 9-8 14-10 16-19 30-27 50-1 6-7 10-13 10-1 0-5 3-7 6-15 28-21 69-19 78 1 0 2 1 6 1 4-1 8 1 11 4 3 3 4 7 4 11-3 84 28 130 55 153 4 4 6 11 3 17 0 0 0 1 0 1 12 8 33 8 34 8l0 15 13 8c-1 2 1 7 3 12 9-7 20-12 30-15 30-8 52-17 66-22 63-25 97-90 94-177-1-4 1-8 4-11 2-3 6-4 10-5 3 0 4 0 4 0 3-9-3-51-18-78-2-4-6-6-7-6-6-1-10-5-12-10-8-20-17-35-27-50-3-5-6-9-9-14-9-15-17-25-25-31-4-3-6-8-6-12 0-14 1-39 7-63 2-6 8-10 15-10 1 0 2 0 3 0 8 2 13 10 11 18-5 17-6 36-7 48 10 9 18 20 27 34 3 5 6 10 9 14 9 15 19 29 27 49 8 4 15 11 20 19 17 32 27 82 20 102-3 8-9 14-17 17 0 93-41 165-112 193-14 6-37 15-69 24-14 4-21 10-21 11-1 4-3 8-7 10-3 2-7 3-11 2-13-2-24-19-28-30-2-5-3-9-4-14-19-2-46-12-54-39-1-3-1-5-1-8-25-28-50-75-50-148-9-3-15-9-18-18-7-20 3-70 20-102 5-9 13-16 22-19z" horiz-adv-x="1000" />
<glyph glyph-name="thin-love" unicode="&#xe85b;" d="m883 575c-18 51-53 90-98 112-31 14-66 22-100 22-77 0-148-37-182-94l-3-6-3 5c-33 57-105 94-181 94-35 0-70-8-100-22-46-21-80-61-99-112-21-59-18-128 9-184 61-130 352-385 364-396 3-2 6-3 10-3 0 0 1 0 2 0 3 0 6 2 9 5 17 15 302 266 363 395 27 56 30 125 9 184z m-36-172c-53-112-298-334-347-378-53 47-295 266-347 377-24 50-27 110-8 162 16 44 45 77 83 95 27 13 57 20 88 20 66 0 127-32 155-80l16-27c3-4 7-7 12-7 5 0 10 2 13 6 0 1 1 2 1 2l16 27c28 48 89 79 156 79 30 0 60-6 87-19 38-18 68-52 83-95 19-52 16-112-8-162z m-522 214c-68 0-123-55-123-122 0-20 5-40 14-57 3-5 8-8 13-8 3 0 5 0 7 1 8 4 10 13 6 20-7 13-10 28-10 44 0 51 41 92 93 92 8 0 14 7 14 15 0 8-6 15-14 15z" horiz-adv-x="1000" />
<glyph glyph-name="thin-hanger" unicode="&#xe85c;" d="m863 351l-257 135c-16 8-43 15-62 15l-29 0 0 51 50 69c0 1 0 1 1 2l0 1c9 13 13 27 13 43 0 42-34 76-76 76-42 0-76-34-76-76 0-9 6-15 14-15 8 0 15 6 15 15 0 26 21 47 47 47 26 0 47-21 47-47 0-10-3-19-9-27 0-1 0-1-1-2l-52-72c-2-3-3-6-3-9l0-56-29 0c-19 0-46-7-62-15l-257-135c-19-10-34-34-34-56l0-29c0-25 20-44 44-44l706 0c24 0 44 19 44 44l0 29c0 22-15 46-34 56z m5-85c0-8-7-15-15-15l-706 0c-8 0-15 7-15 15l0 29c0 11 9 25 18 30l257 135c12 6 35 12 49 12l88 0c14 0 37-6 49-12l257-135c9-5 18-19 18-30l0-29z m-1-77c-7-5-9-14-5-21 4-6 6-12 6-17l0-18c0-8-7-14-15-14l-706 0c-8 0-15 6-15 14l0 18c0 5 3 12 7 19 5 6 3 16-4 20-6 5-16 3-20-4-8-11-12-24-12-35l0-18c0-24 20-44 44-44l706 0c24 0 44 20 44 44l0 18c0 10-3 22-10 33-4 7-14 9-20 5z m0-133c-7-5-9-14-5-20 4-6 6-13 6-18l0-17c0-9-7-15-15-15l-706 0c-8 0-15 6-15 15l0 17c0 5 3 13 7 19 5 7 3 16-4 20-6 5-16 3-20-4-8-11-12-24-12-35l0-17c0-25 20-44 44-44l706 0c24 0 44 19 44 44l0 17c0 11-3 22-10 33-4 7-14 9-20 5z" horiz-adv-x="1000" />
<glyph glyph-name="thin-car" unicode="&#xe85d;" d="m838 413c0 7-2 13-4 19l-51 122c-23 56-85 76-136 76l-278 0c-50 0-112-20-136-76l-50-117c-3-6-4-11-5-17-43-13-72-54-68-100l15-177c2-21 7-40 22-57 0 0 0 0 0-1l0-73c0-25 20-44 44-44l74 0c24 0 44 19 44 44l0 59 382 0 0-59c0-25 20-44 44-44l74 0c24 0 44 19 44 44l0 73c0 1 0 1 0 1 13 17 20 36 22 57l15 177c3 40-17 76-52 93z m23-91l-15-177c-2-16-8-32-19-45-3-3-4-8-4-12 1-1 1-2 1-3l0-73c0-8-7-15-15-15l-74 0c-8 0-14 7-14 15l0 73c0 8-7 15-15 15l-412 0c-8 0-15-7-15-15l0-73c0-8-6-15-14-15l-74 0c-8 0-15 7-15 15l0 73c0 1 1 2 1 3 1 4-1 9-4 12-11 13-17 29-19 45l-14 177c-3 36 21 66 55 71 8 1 14 9 13 17-1 5 0 11 2 15l50 118c18 42 68 57 109 57l278 0c41 0 91-15 109-58l51-122c2-4 2-9 2-15-1-6 3-13 9-15 28-10 45-37 43-68z m-578 72l449 0c5 0 9 3 12 7 3 4 3 9 1 14l-44 105c-7 19-33 36-54 36l-278 0c-21 0-47-17-55-36l-45-105c-2-5-1-10 1-14 3-4 8-7 13-7z m58 114c4 8 19 19 28 19l278 0c9 0 24-11 27-19l36-84-405 0 36 84z m50 138c7-4 16-1 19 6l23 46c1 2 6 5 8 5l118 0c2 0 7-3 8-5l23-46c2-5 8-8 13-8 2 0 5 1 7 2 7 3 10 12 6 20l-23 45c-6 12-21 21-34 21l-118 0c-13 0-28-9-34-21l-23-45c-4-8-1-17 7-20z m366-311c-36 0-66-29-66-66 0-36 30-66 66-66 37 0 67 30 67 66 0 37-30 66-67 66z m0-103c-20 0-36 17-36 37 0 20 16 37 36 37 21 0 37-17 37-37 0-20-16-37-37-37z m-514 103c-37 0-67-29-67-66 0-36 30-66 67-66 36 0 66 30 66 66 0 37-30 66-66 66z m0-103c-21 0-37 17-37 37 0 20 16 37 37 37 20 0 36-17 36-37 0-20-16-37-36-37z m360 89l-206 0c-16 0-30-7-39-19-8-11-10-27-5-43l16-48c10-29 42-52 72-52l118 0c31 0 62 23 72 52l16 48c5 16 3 32-5 43-8 12-23 19-39 19z m16-52l-16-49c-6-17-26-32-44-32l-118 0c-18 0-38 15-44 32l-16 49c-2 6-2 12 1 16 3 4 8 6 15 6l206 0c7 0 12-2 15-6 3-4 3-10 1-16z" horiz-adv-x="1000" />
<glyph glyph-name="thin-cloth" unicode="&#xe85e;" d="m740 717l-24 7-95 23c-8 2-16-3-18-11 0-1 0-2 0-3l0 0c0-41-46-74-103-74-57 0-103 33-103 74l0 0c0 1 0 2 0 3-2 8-10 13-18 11l-96-23-21-7c-6-1-144-35-159-366 0-4 1-8 4-11 3-3 7-5 11-5l117 0 0-338c0-24 20-44 44-44l442 0c24 0 44 20 44 44l0 338 117 0c5 0 8 2 11 5 3 3 4 7 4 11-15 331-153 365-157 366z m25-352l0 191c0 8-7 15-15 15-8 0-15-7-15-15l0-559c0-8-6-15-14-15l-442 0c-8 0-14 7-14 15l0 559c0 8-7 15-15 15-8 0-15-7-15-15l0-191-102 0c17 291 134 323 136 324l22 6 79 19c11-48 65-84 130-84 65 0 119 36 130 84l79-18 23-7c1-1 118-30 135-324l-102 0z m-118 147l-118 0c-8 0-14-7-14-15 0-8 6-15 14-15l118 0c8 0 15 7 15 15 0 8-7 15-15 15z" horiz-adv-x="1000" />
</font>
</defs>
</svg>
